HDTV Ariana Grande - Lip Sync, Interview, Dangerous Woman - Jimmy Fallon 2016-04-25 720p HDTV

Discussion in 'Interviews / TV shows / Others' started by Darkangel, Apr 27, 2016.

  1. Darkangel

    Darkangel Taylor Fan Staff Member Super Moderator Capper V . I . P. Donor

    Joined:
    Oct 7, 2013
    Messages:
    2,233
    Likes Received:
    18,296
    The show is with German subtitles

    [​IMG]

    [​IMG]

    [​IMG]

    [​IMG]

    [​IMG]

    [​IMG]
    Code:
    Complete name  : Ariana Grande - Lip Sync, Interview, Dangerous Woman - The Tonight Show Starring Jimmy Fallon 2016-04-25 720p HDTV Darkangel-HDMania.ts
    Format  : MPEG-TS
    File size  : 920 MiB
    Duration  : 13mn 40s
    Overall bit rate mode  : Variable
    Overall bit rate  : 9 403 Kbps
    
    Video
    ID  : 5411 (0x1523)
    Menu ID  : 10376 (0x2888)
    Format  : AVC
    Format/Info  : Advanced Video Codec
    Format profile  : [email protected]
    Format settings, CABAC  : Yes
    Format settings, ReFrames  : 4 frames
    Format settings, GOP  : M=6, N=32
    Codec ID  : 27
    Duration  : 13mn 40s
    Bit rate  : 8 098 Kbps
    Width  : 1 280 pixels
    Height  : 720 pixels
    Display aspect ratio  : 16:9
    Frame rate  : 50.000 fps
    Color space  : YUV
    Chroma subsampling  : 4:2:0
    Bit depth  : 8 bits
    Scan type  : Progressive
    Bits/(Pixel*Frame)  : 0.176
    Stream size  : 792 MiB (86%)
    
    Audio #1
    ID  : 5412 (0x1524)
    Menu ID  : 10376 (0x2888)
    Format  : AC-3
    Format/Info  : Audio Coding 3
    Mode extension  : CM (complete main)
    Format settings, Endianness  : Big
    Codec ID  : 6
    Duration  : 13mn 40s
    Bit rate mode  : Constant
    Bit rate  : 448 Kbps
    Channel(s)  : 2 channels
    Channel positions  : Front: L R
    Sampling rate  : 48.0 KHz
    Compression mode  : Lossy
    Delay relative to video  : -60ms
    Stream size  : 43.8 MiB (5%)
    Language  : German
    
    Audio #2
    ID  : 5413 (0x1525)
    Menu ID  : 10376 (0x2888)
    Format  : MPEG Audio
    Format version  : Version 1
    Format profile  : Layer 2
    Codec ID  : 3
    Duration  : 13mn 40s
    Bit rate mode  : Constant
    Bit rate  : 192 Kbps
    Channel(s)  : 2 channels
    Sampling rate  : 48.0 KHz
    Compression mode  : Lossy
    Delay relative to video  : -60ms
    Stream size  : 18.8 MiB (2%)
    Language  : German
    
    Audio #3
    ID  : 5414 (0x1526)
    Menu ID  : 10376 (0x2888)
    Format  : MPEG Audio
    Format version  : Version 1
    Format profile  : Layer 2
    Codec ID  : 3
    Duration  : 13mn 40s
    Bit rate mode  : Constant
    Bit rate  : 192 Kbps
    Channel(s)  : 2 channels
    Sampling rate  : 48.0 KHz
    Compression mode  : Lossy
    Delay relative to video  : -60ms
    Stream size  : 18.8 MiB (2%)
    
    Text
    ID  : 5415 (0x1527)-100
    Menu ID  : 10376 (0x2888)
    Format  : Teletext
    Language  : German
    
    Menu
    ID  : 5410 (0x1522)
    Menu ID  : 10376 (0x2888)
    Duration  : 13mn 40s
    List  : 5411 (0x1523) (AVC) / 5412 (0x1524) (AC-3, German) / 5413 (0x1525) (MPEG Audio, German) / 5414 (0x1526) (MPEG Audio) / 5415 (0x1527) ()
    Language  :  / German / German
    Hidden Content:
    You must either reply or click 'Like' to see the hidden information contained here.
    Capped by me
     
    orgulo, Dant3, rcj and 17 others like this.
  2. Loading...


  3. Dfrazzer

    Dfrazzer Super Moderator Staff Member Super Moderator Capper V . I . P. Donor

    Joined:
    Nov 4, 2013
    Messages:
    3,989
    Likes Received:
    8,118
    Thanks so much, it looks like a great show.
     
  4. withcap

    withcap Well-Known Member

    Joined:
    Oct 29, 2013
    Messages:
    1,395
    Likes Received:
    71
    Thank you for Ariana :)
     
  5. danixat

    danixat Katycat ^-^ Capper V . I . P. Donor

    Joined:
    Feb 23, 2014
    Messages:
    1,145
    Likes Received:
    6,169
    Thanks! :victory:
     
  6. Ank-hell

    Ank-hell Well-Known Member V . I . P.

    Joined:
    Dec 21, 2013
    Messages:
    1,421
    Likes Received:
    5,444
    Thanks so much
     
  7. Puchacz93

    Puchacz93 Well-Known Member

    Joined:
    Feb 4, 2015
    Messages:
    1,206
    Likes Received:
    695
    Thank you.:love:
     
  8. Joe1240

    Joe1240 Well-Known Member

    Joined:
    Apr 3, 2014
    Messages:
    478
    Likes Received:
    347
    Thanks for Ariana.
     
  9. Kaiquegpp

    Kaiquegpp Member

    Joined:
    Jul 7, 2014
    Messages:
    371
    Likes Received:
    14
  10. edgar

    edgar Well-Known Member

    Joined:
    Oct 12, 2013
    Messages:
    1,498
    Likes Received:
    1,420
    Thank you for Ariana:love::love::love:
     
  11. isham023

    isham023 Well-Known Member

    Joined:
    Nov 30, 2013
    Messages:
    2,089
    Likes Received:
    43
    thanks
     
  12. santa321

    santa321 Active Member

    Joined:
    Dec 7, 2013
    Messages:
    1,221
    Likes Received:
    23
    thank you