HDTV Ariana Grande - Jason's Song (Gave It Away) Jimmy Fallon 2016-09-19 1080i h264 24mbps DD5.1 384kbps

Discussion in 'HD Live Performances' started by Sharpie, Sep 21, 2016.

  1. poogunii

    poogunii New Member

    Joined:
    May 29, 2017
    Messages:
    13
    Likes Received:
    0
    thanks
     
  2. Ari mic feeds

    Ari mic feeds New Member

    Joined:
    Jul 18, 2017
    Messages:
    2
    Likes Received:
    0
    why can i never see a download option? how do i download this with 5.1 audio???????
     
  3. Causeislae

    Causeislae Active Member

    Joined:
    Jul 9, 2017
    Messages:
    478
    Likes Received:
    38
    Thank you
     
  4. jaz12345

    jaz12345 Member

    Joined:
    Apr 9, 2017
    Messages:
    202
    Likes Received:
    4
    thanks
     
  5. Luanreaal

    Luanreaal Member

    Joined:
    Sep 19, 2017
    Messages:
    183
    Likes Received:
    2
    YAAAAAAAAAAAAAAAAS
     
  6. ulygatore

    ulygatore Well-Known Member

    Joined:
    Jun 29, 2017
    Messages:
    1,192
    Likes Received:
    59
  7. mariahpam

    mariahpam Member

    Joined:
    Dec 3, 2017
    Messages:
    276
    Likes Received:
    11

    thanks ave It Away)​

    [​IMG]
    [​IMG]
    [​IMG]

    General
    ID : 1 (0x1)
    Complete name : Ariana Grande - Jason's Song (Gave It Away)_Fallon_2016-09-19.ts
    Format : MPEG-TS
    File size : 961 MiB
    Duration : 5mn 23s
    Overall bit rate mode : Variable
    Overall bit rate : 24.9 Mbps
    Movie name : Tonight Show Jimmy Fallon
    Law rating : TV-14 (L)

    Video
    ID : 513 (0x201)
    Menu ID : 1 (0x1)
    Format : AVC
    Format/Info : Advanced Video Codec
    Format profile : High@L4.1
    Format settings, CABAC : Yes
    Format settings, ReFrames : 4 frames
    Codec ID : 27
    Duration : 5mn 23s
    Bit rate : 23.3 Mbps
    Width : 1 920 pixels
    Height : 1 080 pixels
    Display aspect ratio : 16:9
    Frame rate : 29.970 fps
    Color space : YUV
    Chroma subsampling : 4:2:0
    Bit depth : 8 bits
    Scan type : Interlaced
    Scan order : Top Field First
    Bits/(Pixel*Frame) : 0.375
    Stream size : 898 MiB (93%)
    Color range : Full
    Color primaries : BT.709
    Transfer characteristics : BT.709
    Matrix coefficients : BT.709

    Audio
    ID : 514 (0x202)
    Menu ID : 1 (0x1)
    Format : AC-3
    Format/Info : Audio Coding 3
    Mode extension : CM (complete main)
    Format settings, Endianness : Big
    Codec ID : 129
    Duration : 5mn 23s
    Bit rate mode : Constant
    Bit rate : 384 Kbps
    Channel(s) : 6 channels
    Channel positions : Front: L C R, Side: L R, LFE
    Sampling rate : 48.0 KHz
    Compression mode : Lossy
    Stream size : 14.8 MiB (2%)
    Language : English

    Text #1
    ID : 513 (0x201)-CC1
    Menu ID : 1 (0x1)
    Format : EIA-608
    Muxing mode : SCTE 128 / DTVCC Transport
    Muxing mode, more info : Muxed in Video #1
    Duration : 5mn 23s
    Bit rate mode : Constant
    Stream size : 0.00 Byte (0%)

    Text #2
    ID : 513 (0x201)-CC3
    Menu ID : 1 (0x1)
    Format : EIA-608
    Muxing mode : SCTE 128 / DTVCC Transport
    Muxing mode, more info : Muxed in Video #1
    Duration : 5mn 23s
    Bit rate mode : Constant
    Stream size : 0.00 Byte (0%)

    Text #3
    ID : 513 (0x201)-1
    Menu ID : 1 (0x1)
    Format : EIA-708
    Muxing mode : SCTE 128 / DTVCC Transport
    Muxing mode, more info : Muxed in Video #1
    Duration : 5mn 23s
    Bit rate mode : Constant
    Stream size : 0.00 Byte (0%)

    Text #4
    ID : 513 (0x201)-3
    Menu ID : 1 (0x1)
    Format : EIA-708
    Muxing mode : SCTE 128 / DTVCC Transport
    Muxing mode, more info : Muxed in Video #1
    Duration : 5mn 23s
    Bit rate mode : Constant
    Stream size : 0.00 Byte (0%)

    ***Hidden content cannot be quoted.***[/QUOTE]
     
  8. catiefields98

    catiefields98 Member

    Joined:
    Jan 11, 2018
    Messages:
    53
    Likes Received:
    0
    Very nice, thanks
     
  9. uminomiyako

    uminomiyako Well-Known Member

    Joined:
    May 28, 2016
    Messages:
    2,636
    Likes Received:
    99
  10. aaliyah2009

    aaliyah2009 Well-Known Member

    Joined:
    Feb 2, 2017
    Messages:
    1,215
    Likes Received:
    31
    thank you
     
  11. Gussgiaa

    Gussgiaa Member

    Joined:
    Oct 23, 2017
    Messages:
    58
    Likes Received:
    2
  12. fozzoi

    fozzoi Member

    Joined:
    Aug 1, 2016
    Messages:
    40
    Likes Received:
    2
    thanks
     
  13. adoreetiyahh

    adoreetiyahh Member

    Joined:
    Jan 10, 2018
    Messages:
    387
    Likes Received:
    1
  14. Madafaka

    Madafaka Active Member

    Joined:
    Feb 23, 2018
    Messages:
    107
    Likes Received:
    28
  15. moxxi69

    moxxi69 Member

    Joined:
    Jul 16, 2018
    Messages:
    375
    Likes Received:
    19
    thanks