HDTV Ariana Grande - Interview + Break Free (Channel 4 HD - Alan Carr Chatty Man - 2014-10-10) 1080i HDTV

Discussion in 'HD Live Performances' started by Lassox, Oct 11, 2014.

  1. Lassox

    Lassox Well-Known Member Capper

    Joined:
    Oct 10, 2013
    Messages:
    421
    Likes Received:
    428
    Ariana Grande - Interview + Break Free (Channel 4 HD - Alan Carr Chatty Man - 2014-10-10) 1080i HDTV



    [​IMG]

    Code:
    General
    ID                                       : 1 (0x1)
    Complete name                            : Ariana Grande - Interview + Break Free (Channel 4 HD - Alan Carr Chatty Man - 2014-10-10) 1080i HDTV.ts
    Format                                   : MPEG-TS
    File size                                : 738 MiB
    Duration                                 : 10mn 47s
    Overall bit rate mode                    : Variable
    Overall bit rate                         : 9 555 Kbps
    
    Video
    ID                                       : 2305 (0x901)
    Menu ID                                  : 1 (0x1)
    Format                                   : AVC
    Format/Info                              : Advanced Video Codec
    Format profile                           : Main@L4.0
    Format settings, CABAC                   : Yes
    Format settings, ReFrames                : 4 frames
    Codec ID                                 : 27
    Duration                                 : 10mn 47s
    Bit rate                                 : 8 501 Kbps
    Width                                    : 1 920 pixels
    Height                                   : 1 080 pixels
    Display aspect ratio                     : 16:9
    Frame rate                               : 25.000 fps
    Color space                              : YUV
    Chroma subsampling                       : 4:2:0
    Bit depth                                : 8 bits
    Scan type                                : Interlaced
    Scan order                               : Top Field First
    Bits/(Pixel*Frame)                       : 0.164
    Stream size                              : 657 MiB (89%)
    Color primaries                          : BT.709
    Transfer characteristics                 : BT.709
    Matrix coefficients                      : BT.709
    
    Audio #1
    ID                                       : 2306 (0x902)
    Menu ID                                  : 1 (0x1)
    Format                                   : AC-3
    Format/Info                              : Audio Coding 3
    Mode extension                           : CM (complete main)
    Format settings, Endianness              : Big
    Codec ID                                 : 6
    Duration                                 : 10mn 47s
    Bit rate mode                            : Constant
    Bit rate                                 : 384 Kbps
    Channel(s)                               : 2 channels
    Channel positions                        : Front: L R
    Sampling rate                            : 48.0 KHz
    Bit depth                                : 16 bits
    Compression mode                         : Lossy
    Stream size                              : 29.7 MiB (4%)
    Language                                 : English
    
    Audio #2
    ID                                       : 2307 (0x903)
    Menu ID                                  : 1 (0x1)
    Format                                   : MPEG Audio
    Format version                           : Version 1
    Format profile                           : Layer 2
    Codec ID                                 : 3
    Duration                                 : 10mn 47s
    Bit rate mode                            : Constant
    Bit rate                                 : 192 Kbps
    Channel(s)                               : 2 channels
    Sampling rate                            : 48.0 KHz
    Compression mode                         : Lossy
    Stream size                              : 14.8 MiB (2%)
    Language                                 : English
    Hidden Content:
    You must reply before you can see the hidden data contained here.

    Ariana Grande - Break Free (Channel 4 HD - Alan Carr Chatty Man - 2014-10-10) 1080i HDTV

    [​IMG]

    Code:
    General
    ID                                       : 1 (0x1)
    Complete name                            : Ariana Grande - Break Free (Channel 4 HD - Alan Carr Chatty Man - 2014-10-10) 1080i HDTV.ts
    Format                                   : MPEG-TS
    File size                                : 231 MiB
    Duration                                 : 3mn 23s
    Overall bit rate mode                    : Variable
    Overall bit rate                         : 9 512 Kbps
    
    Video
    ID                                       : 2305 (0x901)
    Menu ID                                  : 1 (0x1)
    Format                                   : AVC
    Format/Info                              : Advanced Video Codec
    Format profile                           : Main@L4.0
    Format settings, CABAC                   : Yes
    Format settings, ReFrames                : 4 frames
    Codec ID                                 : 27
    Duration                                 : 3mn 23s
    Bit rate                                 : 8 460 Kbps
    Width                                    : 1 920 pixels
    Height                                   : 1 080 pixels
    Display aspect ratio                     : 16:9
    Frame rate                               : 25.000 fps
    Color space                              : YUV
    Chroma subsampling                       : 4:2:0
    Bit depth                                : 8 bits
    Scan type                                : Interlaced
    Scan order                               : Top Field First
    Bits/(Pixel*Frame)                       : 0.163
    Stream size                              : 206 MiB (89%)
    Color primaries                          : BT.709
    Transfer characteristics                 : BT.709
    Matrix coefficients                      : BT.709
    
    Audio #1
    ID                                       : 2306 (0x902)
    Menu ID                                  : 1 (0x1)
    Format                                   : AC-3
    Format/Info                              : Audio Coding 3
    Mode extension                           : CM (complete main)
    Format settings, Endianness              : Big
    Codec ID                                 : 6
    Duration                                 : 3mn 23s
    Bit rate mode                            : Constant
    Bit rate                                 : 384 Kbps
    Channel(s)                               : 2 channels
    Channel positions                        : Front: L R
    Sampling rate                            : 48.0 KHz
    Bit depth                                : 16 bits
    Compression mode                         : Lossy
    Stream size                              : 9.33 MiB (4%)
    Language                                 : English
    
    Audio #2
    ID                                       : 2307 (0x903)
    Menu ID                                  : 1 (0x1)
    Format                                   : MPEG Audio
    Format version                           : Version 1
    Format profile                           : Layer 2
    Codec ID                                 : 3
    Duration                                 : 3mn 23s
    Bit rate mode                            : Constant
    Bit rate                                 : 192 Kbps
    Channel(s)                               : 2 channels
    Sampling rate                            : 48.0 KHz
    Compression mode                         : Lossy
    Stream size                              : 4.66 MiB (2%)
    Language                                 : English

    Hidden Content:
    You must reply before you can see the hidden data contained here.
    pass:
    Code:
    sharemania
     
    Last edited: Aug 18, 2018
    arianaloven, edgar, TaySAri and 25 others like this.
  2. Loading...


  3. alex

    alex Well-Known Member

    Joined:
    Nov 21, 2013
    Messages:
    4,632
    Likes Received:
    466
    Thanks:victory:
     
  4. xcxshunfeng

    xcxshunfeng Active Member

    Joined:
    Aug 31, 2014
    Messages:
    410
    Likes Received:
    45
    nice!!!!!!!!!!!!
     
  5. nino.navy

    nino.navy Well-Known Member

    Joined:
    May 30, 2014
    Messages:
    4,793
    Likes Received:
    436
    thanks so much !! :D
     
  6. P1956

    P1956 Well-Known Member

    Joined:
    Aug 18, 2014
    Messages:
    1,363
    Likes Received:
    147
    thanks
     
  7. edgar

    edgar Well-Known Member V . I . P.

    Joined:
    Oct 12, 2013
    Messages:
    3,007
    Likes Received:
    3,243
  8. Dfrazzer

    Dfrazzer Super Moderator Staff Member Super Moderator Capper V . I . P. Donor

    Joined:
    Nov 4, 2013
    Messages:
    6,348
    Likes Received:
    18,131
    Thanks so much.
     
  9. Joe1240

    Joe1240 Well-Known Member

    Joined:
    Apr 3, 2014
    Messages:
    853
    Likes Received:
    524
    Thanks.
     
  10. Ari10i

    Ari10i Active Member

    Joined:
    Oct 7, 2013
    Messages:
    96
    Likes Received:
    67
    Amazing!
     
  11. Felipe Lira

    Felipe Lira New Member

    Joined:
    Oct 9, 2014
    Messages:
    2
    Likes Received:
    1
  12. jack_black

    jack_black Well-Known Member

    Joined:
    Feb 16, 2014
    Messages:
    1,279
    Likes Received:
    1,091
  13. celio

    celio Active Member

    Joined:
    Oct 29, 2013
    Messages:
    998
    Likes Received:
    20
  14. luco

    luco Active Member Capper

    Joined:
    Dec 6, 2013
    Messages:
    766
    Likes Received:
    77
    thanks
     
  15. Wroggy

    Wroggy Member

    Joined:
    May 19, 2014
    Messages:
    265
    Likes Received:
    13
    Ariana looks sexy as usual.

    Thanks a lot!
     
  16. spbb123

    spbb123 Member

    Joined:
    Jun 4, 2014
    Messages:
    147
    Likes Received:
    6
    thanks
     
  17. opened

    opened Active Member Capper

    Joined:
    Dec 31, 2013
    Messages:
    393
    Likes Received:
    81
    Thank for posting this!!!
     
  18. cici1234

    cici1234 Well-Known Member

    Joined:
    May 31, 2014
    Messages:
    437
    Likes Received:
    266
  19. Antonio Barros

    Antonio Barros Well-Known Member

    Joined:
    Nov 14, 2013
    Messages:
    1,945
    Likes Received:
    460
    thanxxxxxxxxxxxxx
     
  20. jlopinoyfan

    jlopinoyfan Active Member

    Joined:
    Jul 6, 2014
    Messages:
    304
    Likes Received:
    26
  21. TrollHD

    TrollHD Well-Known Member Capper V . I . P.

    Joined:
    May 3, 2014
    Messages:
    102
    Likes Received:
    3,294