Ariana Grande - Interview - 2014 MTV Video Music Awards Red Carpet 1080i HDTV 35Mbps DolbyE TrollHD

Discussion in 'Interviews / TV shows / Others' started by Darkangel, Sep 8, 2014.

  1. Darkangel

    Darkangel Super Moderator Staff Member Super Moderator Capper V . I . P.

    Joined:
    Oct 7, 2013
    Messages:
    2,889
    Likes Received:
    30,247
    Requested by Ari10i

    [​IMG]
    Code:
    Complete name  : Ariana Grande - Interview - 2014 MTV Video Music Awards Red Carpet 1080i HDTV 35 Mbps MPA2.0 + Dolby E MPEG2-TrollHD.ts
    Format  : MPEG-TS
    File size  : 456 MiB
    Duration  : 1mn 33s
    Overall bit rate mode  : Constant
    Overall bit rate  : 40.6 Mbps
    Network name  : MTV
    Frequency  : 11000000000
    OrbitalPosition  : 19.2W
    
    Video
    ID  : 308 (0x134)
    Menu ID  : 1 (0x1)
    Format  : MPEG Video
    Format version  : Version 2
    Format profile  : 4:2:2@High
    Format settings, BVOP  : Yes
    Format settings, Matrix  : Custom
    Format settings, GOP  : M=3, N=15
    Codec ID  : 2
    Duration  : 1mn 33s
    Bit rate  : 35.9 Mbps
    Maximum bit rate  : 35.1 Mbps
    Width  : 1 920 pixels
    Height  : 1 080 pixels
    Display aspect ratio  : 16:9
    Frame rate  : 29.970 fps
    Color space  : YUV
    Chroma subsampling  : 4:2:2
    Bit depth  : 8 bits
    Scan type  : Interlaced
    Scan order  : Top Field First
    Compression mode  : Lossy
    Bits/(Pixel*Frame)  : 0.578
    Time code of first frame  : 06:22:41;05
    Time code source  : Group of pictures header
    Stream size  : 400 MiB (88%)
    
    Audio #1
    ID  : 256 (0x100)
    Menu ID  : 1 (0x1)
    Format  : MPEG Audio
    Format version  : Version 1
    Format profile  : Layer 2
    Codec ID  : 4
    Duration  : 1mn 33s
    Bit rate mode  : Constant
    Bit rate  : 384 Kbps
    Channel(s)  : 2 channels
    Sampling rate  : 48.0 KHz
    Compression mode  : Lossy
    Delay relative to video  : -525ms
    Stream size  : 4.30 MiB (1%)
    Language  : English
    
    Audio #2
    ID  : 257 (0x101)-1
    Menu ID  : 1 (0x1)
    Format  : Dolby E
    Mode  : 20
    Format settings, Endianness  : Little
    Muxing mode  : AES3
    Codec ID  : 6
    Duration  : 1mn 33s
    Bit rate mode  : Constant
    Encoded bit rate  : 2 304 Kbps
    Channel(s)  : 6 channels
    Channel positions  : Front: L C R, Side: L R, LFE
    Sampling rate  : 48.0 KHz
    Bit depth  : 20 bits
    Delay relative to video  : -434ms
    Language  : English
    
    Audio #3
    ID  : 257 (0x101)-2
    Menu ID  : 1 (0x1)
    Format  : Dolby E
    Mode  : 20
    Format settings, Endianness  : Little
    Muxing mode  : AES3
    Duration  : 1mn 33s
    Bit rate mode  : Constant
    Encoded bit rate  : 0 bps
    Channel(s)  : 2 channels
    Channel positions  : Front: L R
    Sampling rate  : 48.0 KHz
    Bit depth  : 20 bits
    Delay relative to video  : -434ms
    
    Menu
    ID  : 32 (0x20)
    Menu ID  : 1 (0x1)
    List  : 308 (0x134) (MPEG Video) / 256 (0x100) (MPEG Audio, English) / 257 (0x101) (Dolby E)
    Language  :  / English
    Service name  : VMA's C Band PRIME Enc
    Service provider  : PSSI Global SVCS
    Service type  : digital television
    Maximum bit rate  : 40625200
    UTC 2014-08-24 00:00:00  : en:Current / en:Not Applicable /  /  / 24:00:00 / Running
    UTC 2014-08-25 00:00:00  : en:Next / en:Not Applicable /  /  / 24:00:00 / Not running
    Hidden Content:
    You must either reply or click 'Like' to see the hidden information contained here.
     
    Last edited: Sep 8, 2014
    kalkoj, carlo44, Luanreaal and 15 others like this.
  2. Loading...


  3. santa321

    santa321 Well-Known Member

    Joined:
    Dec 7, 2013
    Messages:
    2,061
    Likes Received:
    103
  4. Kaiquegpp

    Kaiquegpp Member

    Joined:
    Jul 7, 2014
    Messages:
    381
    Likes Received:
    18
  5. Ari10i

    Ari10i Active Member

    Joined:
    Oct 7, 2013
    Messages:
    96
    Likes Received:
    67
    Amazing, can't thank you enough!
     
  6. Ank-hell

    Ank-hell nɪhɪl V . I . P.

    Joined:
    Dec 21, 2013
    Messages:
    1,491
    Likes Received:
    8,413
  7. alex

    alex Well-Known Member

    Joined:
    Nov 21, 2013
    Messages:
    4,632
    Likes Received:
    466
  8. opened

    opened Active Member Capper

    Joined:
    Dec 31, 2013
    Messages:
    393
    Likes Received:
    81
    Thank you
     
  9. edgar

    edgar Well-Known Member V . I . P.

    Joined:
    Oct 12, 2013
    Messages:
    3,007
    Likes Received:
    3,243
  10. Joe1240

    Joe1240 Well-Known Member

    Joined:
    Apr 3, 2014
    Messages:
    853
    Likes Received:
    524
    Thanks.
     
  11. Vagabond

    Vagabond Member

    Joined:
    Jun 23, 2014
    Messages:
    290
    Likes Received:
    8
    Thank You! :D
     
  12. vborgof

    vborgof Member

    Joined:
    Jun 22, 2014
    Messages:
    404
    Likes Received:
    14
  13. senorguti

    senorguti Member

    Joined:
    Jun 1, 2015
    Messages:
    242
    Likes Received:
    3
    thanks you
     
  14. meg

    meg Member

    Joined:
    Mar 21, 2016
    Messages:
    199
    Likes Received:
    18
    thank you ~!
     
  15. tetard

    tetard Well-Known Member V . I . P.

    Joined:
    Mar 29, 2014
    Messages:
    4,683
    Likes Received:
    6,836
    Thank you
     
  16. moxxi69

    moxxi69 Active Member

    Joined:
    Jul 16, 2018
    Messages:
    886
    Likes Received:
    85
    thanks
     
  17. sweetener

    sweetener Member

    Joined:
    Jun 24, 2019
    Messages:
    183
    Likes Received:
    7
    thank you
     
  18. Jenkins

    Jenkins Well-Known Member

    Joined:
    May 30, 2019
    Messages:
    24,692
    Likes Received:
    718
    THANKS
     
  19. naughty_ari

    naughty_ari Member

    Joined:
    May 1, 2020
    Messages:
    271
    Likes Received:
    11