Ariana Grande ft. The Weeknd - Love Me Harder (VEVOtv HDTV-1080i 23Mbps) Danixat-HDMania

Discussion in 'VEVOtv' started by danixat, Mar 26, 2016.

  1. danixat

    danixat Katycat ^-^ Capper V . I . P. Donor

    Joined:
    Feb 23, 2014
    Messages:
    1,145
    Likes Received:
    6,174
    [​IMG]
    [​IMG]
    [​IMG]
    [​IMG]
    Code:
    General
    ID                             : 1 (0x1)
    Complete name                  : K:\Ariana Grande ft. The Weeknd - Love Me Harder (VEVOtv HDTV-1080i 23Mbps) Danixat-HDMania.ts
    Format                         : MPEG-TS
    File size                      : 691 MiB
    Duration                       : 4mn 10s
    Overall bit rate mode          : Variable
    Overall bit rate               : 23.1 Mbps
    
    Video
    ID                             : 100 (0x64)
    Menu ID                        : 2 (0x2)
    Format                         : AVC
    Format/Info                    : Advanced Video Codec
    Format profile                 : [email protected]
    Format settings, CABAC         : Yes
    Format settings, ReFrames      : 2 frames
    Codec ID                       : 27
    Duration                       : 4mn 10s
    Bit rate mode                  : Variable
    Bit rate                       : 21.8 Mbps
    Maximum bit rate               : 15.0 Mbps
    Width                          : 1 920 pixels
    Height                         : 1 080 pixels
    Display aspect ratio           : 16:9
    Frame rate                     : 25.000 fps
    Color space                    : YUV
    Chroma subsampling             : 4:2:0
    Bit depth                      : 8 bits
    Scan type                      : MBAFF
    Bits/(Pixel*Frame)             : 0.420
    Stream size                    : 651 MiB (94%)
    
    Audio
    ID                             : 101 (0x65)
    Menu ID                        : 2 (0x2)
    Format                         : AAC
    Format/Info                    : Advanced Audio Codec
    Format version                 : Version 4
    Format profile                 : LC
    Muxing mode                    : ADTS
    Codec ID                       : 15
    Duration                       : 4mn 10s
    Bit rate mode                  : Variable
    Bit rate                       : 218 Kbps
    Channel(s)                     : 2 channels
    Channel positions              : Front: L R
    Sampling rate                  : 48.0 KHz
    Compression mode               : Lossy
    Delay relative to video        : -13ms
    Stream size                    : 6.53 MiB (1%)

    [​IMG]

    Download:
    Hidden Content:
    You must either reply or click 'Like' to see the hidden information contained here.
    CAPPED BY ME :victory:
     
  2. Loading...


  3. Hyrus

    Hyrus Arianator / Selenator / Victorian / LBS* Donor

    Joined:
    Feb 9, 2015
    Messages:
    1,131
    Likes Received:
    680
    Thanks a lot for the great Ari!! :happy::D
     
  4. manutd4eva

    manutd4eva New Member

    Joined:
    Apr 5, 2016
    Messages:
    23
    Likes Received:
    2
  5. Reeko90

    Reeko90 New Member

    Joined:
    Aug 12, 2016
    Messages:
    18
    Likes Received:
    1
    Thank You i love this Song :)
     
  6. Pra

    Pra Member

    Joined:
    Jun 19, 2014
    Messages:
    34
    Likes Received:
    4
    Thanks
     
  7. cesar josep liuses yesus

    cesar josep liuses yesus Member

    Joined:
    Dec 22, 2016
    Messages:
    123
    Likes Received:
    1
  8. el_inigualable

    el_inigualable Member

    Joined:
    Dec 25, 2016
    Messages:
    199
    Likes Received:
    3
    GRACIAS !!!
     
  9. seregil

    seregil Member

    Joined:
    Sep 5, 2014
    Messages:
    103
    Likes Received:
    1
    thanks