Ariana Grande Ft. The Weeknd - Love Me Harder MTV Live HD 1080i HDMania

Discussion in 'MTV LIVE HD' started by Dfrazzer, May 7, 2015.

  1. Dfrazzer

    Dfrazzer Super Moderator Staff Member Super Moderator Capper V . I . P. Donor

    Joined:
    Nov 4, 2013
    Messages:
    3,943
    Likes Received:
    7,933
    [​IMG] [​IMG] [​IMG] [​IMG] [​IMG] [​IMG] [​IMG] [​IMG] [​IMG] [​IMG] [​IMG] [​IMG] [​IMG] [​IMG] [​IMG] [​IMG] [​IMG] [​IMG] [​IMG] [​IMG] [​IMG] [​IMG] [​IMG] [​IMG] [​IMG] [​IMG] [​IMG] [​IMG] [​IMG]

    Code:
    General
    ID : 1 (0x1)
    Complete name : C:\Users\Dfrazzer\Desktop\Ariana Grande Ft. The Weeknd - Love Me Harder MTV Live HD 1080i HDMania.ts
    Format : MPEG-TS
    File size : 357 MiB
    Duration : 4mn 0s
    Overall bit rate mode : Variable
    Overall bit rate : 12.5 Mbps
    
    Video
    ID : 100 (0x64)
    Menu ID : 2 (0x2)
    Format : AVC
    Format/Info : Advanced Video Codec
    Format profile : [email protected]
    Format settings, CABAC : Yes
    Format settings, ReFrames : 2 frames
    Codec ID : 27
    Duration : 4mn 0s
    Bit rate mode : Variable
    Bit rate : 11.6 Mbps
    Maximum bit rate : 24.0 Mbps
    Width : 1 920 pixels
    Height : 1 080 pixels
    Display aspect ratio : 16:9
    Frame rate : 25.000 fps
    Color space : YUV
    Chroma subsampling : 4:2:0
    Bit depth : 8 bits
    Scan type : Interlaced
    Scan order : Top Field First
    Bits/(Pixel*Frame) : 0.224
    Stream size : 333 MiB (93%)
    Color primaries : BT.709
    Transfer characteristics : BT.709
    Matrix coefficients : BT.709
    
    Audio
    ID : 101 (0x65)
    Menu ID : 2 (0x2)
    Format : AAC
    Format/Info : Advanced Audio Codec
    Format version : Version 4
    Format profile : LC
    Muxing mode : ADTS
    Codec ID : 15
    Duration : 4mn 0s
    Bit rate mode : Variable
    Bit rate : 220 Kbps
    Channel(s) : 2 channels
    Channel positions : Front: L R
    Sampling rate : 48.0 KHz
    Compression mode : Lossy
    Stream size : 6.30 MiB (2%)
    

    Hidden Content:
    You must reply before you can see the hidden data contained here.
    Capped by me.
     
  2. Loading...


  3. Dreamer

    Dreamer Well-Known Member Capper Uploader

    Joined:
    Dec 4, 2014
    Messages:
    2,292
    Likes Received:
    2,131
    Thank u
     
  4. Grailen

    Grailen Well-Known Member

    Joined:
    Oct 8, 2013
    Messages:
    549
    Likes Received:
    580
    thank you
     
  5. santa321

    santa321 Active Member

    Joined:
    Dec 7, 2013
    Messages:
    1,194
    Likes Received:
    22
    thank you
     
  6. 777josem

    777josem Well-Known Member Uploader

    Joined:
    Sep 1, 2014
    Messages:
    2,458
    Likes Received:
    1,334
    :happy:Thank you so much!
     
  7. xcxshunfeng

    xcxshunfeng Active Member

    Joined:
    Aug 31, 2014
    Messages:
    298
    Likes Received:
    27
    nice
     
  8. rhea

    rhea Well-Known Member

    Joined:
    Jan 6, 2014
    Messages:
    5,404
    Likes Received:
    262
    thank you so much :)
     
  9. Crusha

    Crusha Well-Known Member Capper

    Joined:
    Oct 15, 2014
    Messages:
    2,350
    Likes Received:
    2,175
    thank you
     
  10. slill

    slill Member

    Joined:
    Jul 25, 2014
    Messages:
    929
    Likes Received:
    10
    thanks
     
  11. Attention

    Attention Active Member

    Joined:
    Nov 30, 2013
    Messages:
    564
    Likes Received:
    29
    Thanks!
     
  12. Harry

    Harry Member

    Joined:
    Mar 4, 2014
    Messages:
    288
    Likes Received:
    3
    Thank U so much! :)