CC Ariana Grande ft. Iggy Azalea - Problem 1080p kamikkadze

Discussion in 'MUSIC CHOICE' started by halfpastturtle, Feb 16, 2016.

  1. halfpastturtle

    halfpastturtle New Member

    Joined:
    Feb 16, 2016
    Messages:
    14
    Likes Received:
    2
    [​IMG]
    [​IMG]

    A HDTV rip of Ariana Grande's Problem that came out in 2014. This is not my rip, but I re-encoded it. Enjoy!

    General
    Complete name : Ariana.Grande.ft.Iggy.Azalea.Problem.1080p.HDTV.kamikkadze.mp4
    Format : MPEG-4
    Format profile : Base Media / Version 2
    Codec ID : mp42
    File size : 91.3 MiB
    Duration : 3mn 27s
    Overall bit rate : 3 698 Kbps
    Movie name : Ariana Grande ft. Iggy Azalea - Problem
    Encoded date : UTC 2036-02-06 06:28:16
    Tagged date : UTC 2016-02-16 06:18:34
    Writing application : HandBrake v0.10.2

    Video
    ID : 1
    Format : AVC
    Format/Info : Advanced Video Codec
    Format profile : Main@L4.0
    Format settings, CABAC : Yes
    Format settings, ReFrames : 4 frames
    Codec ID : avc1
    Codec ID/Info : Advanced Video Coding
    Duration : 3mn 27s
    Bit rate mode : Variable
    Bit rate : 3 444 Kbps
    Width : 1 920 pixels
    Height : 760 pixels
    Display aspect ratio : 2.526
    Frame rate mode : Variable
    Frame rate : 60.000 fps
    Minimum frame rate : 58.824 fps
    Maximum frame rate : 62.500 fps
    Color space : YUV
    Chroma subsampling : 4:2:0
    Bit depth : 8 bits
    Scan type : Progressive
    Bits/(Pixel*Frame) : 0.039
    Stream size : 85.1 MiB (93%)
    Writing library : x264 core 142 r2479 dd79a61
    Encoding settings : cabac=1 / ref=1 / deblock=1:0:0 / analyse=0x1:0x111 / me=hex / subme=2 / psy=1 / psy_rd=1.00:0.00 / mixed_ref=0 / me_range=16 / chroma_me=1 / trellis=0 / 8x8dct=0 / cqm=0 / deadzone=21,11 / fast_pskip=1 / chroma_qp_offset=0 / threads=6 / lookahead_threads=2 / sliced_threads=0 / nr=0 / decimate=1 / interlaced=0 / bluray_compat=0 / constrained_intra=0 / bframes=3 / b_pyramid=2 / b_adapt=1 / b_bias=0 / direct=1 / weightb=1 / open_gop=0 / weightp=1 / keyint=600 / keyint_min=60 / scenecut=40 / intra_refresh=0 / rc_lookahead=10 / rc=crf / mbtree=1 / crf=23.0 / qcomp=0.60 / qpmin=0 / qpmax=69 / qpstep=4 / vbv_maxrate=20000 / vbv_bufsize=25000 / crf_max=0.0 / nal_hrd=none / filler=0 / ip_ratio=1.40 / aq=1:1.00
    Encoded date : UTC 2036-02-06 06:28:16
    Tagged date : UTC 2036-02-06 06:28:16
    Color primaries : BT.709-5, BT.1361, IEC 61966-2-4, SMPTE RP177
    Transfer characteristics : BT.709-5, BT.1361
    Matrix coefficients : BT.709-5, BT.1361, IEC 61966-2-4 709, SMPTE RP177

    Audio
    ID : 2
    Format : AAC
    Format/Info : Advanced Audio Codec
    Format profile : LC
    Codec ID : 40
    Duration : 3mn 27s
    Bit rate mode : Variable
    Bit rate : 240 Kbps
    Maximum bit rate : 301 Kbps
    Channel(s) : 2 channels
    Channel positions : Front: L R
    Sampling rate : 48.0 KHz
    Compression mode : Lossy
    Stream size : 5.94 MiB (7%)
    Title : Ariana Grande ft. Iggy Azalea - Problem
    Encoded date : UTC 2036-02-06 06:28:16
    Tagged date : UTC 2036-02-06 06:28:16

    Hidden Content:
    You must reply before you can see the hidden data contained here.
     
    Last edited: Feb 20, 2016
  2. Loading...


  3. santa321

    santa321 Active Member

    Joined:
    Dec 7, 2013
    Messages:
    1,178
    Likes Received:
    21
    thank you
     
  4. xcxshunfeng

    xcxshunfeng Member

    Joined:
    Aug 31, 2014
    Messages:
    293
    Likes Received:
    24
    nice!
     
  5. Ank-hell

    Ank-hell Well-Known Member V . I . P.

    Joined:
    Dec 21, 2013
    Messages:
    1,417
    Likes Received:
    5,177
    thank you
     
  6. halfpastturtle

    halfpastturtle New Member

    Joined:
    Feb 16, 2016
    Messages:
    14
    Likes Received:
    2
    Fixed screenshots.
     
  7. krest

    krest Member

    Joined:
    May 31, 2015
    Messages:
    210
    Likes Received:
    2
    thank you
     
  8. sideshow_bob

    sideshow_bob Well-Known Member

    Joined:
    Dec 20, 2013
    Messages:
    2,410
    Likes Received:
    122
  9. finuj

    finuj Member

    Joined:
    Jul 19, 2016
    Messages:
    60
    Likes Received:
    2
    nice one