Ariana Grande - Focus (One.by HD 1080i) - dan93star

Discussion in 'One.by HD' started by Dreamer, Nov 5, 2015.

  1. Dreamer

    Dreamer Well-Known Member Capper Uploader

    Joined:
    Dec 4, 2014
    Messages:
    2,289
    Likes Received:
    2,111
    Ariana Grande - Focus (One.by HD)

    [​IMG]

    General
    ID : 0 (0x0)
    Complete name : C:\Users\DK\Desktop\Ariana Grande - Focus (One.by HD).ts
    Format : MPEG-TS
    File size : 117 MiB
    Duration : 3mn 28s
    Overall bit rate mode : Variable
    Overall bit rate : 4 720 Kbps
    Maximum Overall bit rate : 3 700 Kbps

    Video
    ID : 4113 (0x1011)
    Menu ID : 1 (0x1)
    Format : AVC
    Format/Info : Advanced Video Codec
    Format profile : [email protected]
    Format settings, CABAC : Yes
    Format settings, ReFrames : 2 frames
    Codec ID : 27
    Duration : 3mn 28s
    Bit rate : 4 332 Kbps
    Width : 1 920 pixels
    Height : 1 080 pixels
    Display aspect ratio : 16:9
    Frame rate : 25.000 fps
    Color space : YUV
    Chroma subsampling : 4:2:0
    Bit depth : 8 bits
    Scan type : Progressive
    Bits/(Pixel*Frame) : 0.084
    Stream size : 108 MiB (92%)

    Audio
    ID : 4352 (0x1100)
    Menu ID : 1 (0x1)
    Format : AC-3
    Format/Info : Audio Coding 3
    Mode extension : CM (complete main)
    Format settings, Endianness : Big
    Codec ID : 129
    Duration : 3mn 28s
    Bit rate mode : Constant
    Bit rate : 192 Kbps
    Channel(s) : 2 channels
    Channel positions : Front: L R
    Sampling rate : 48.0 KHz
    Compression mode : Lossy
    Stream size : 4.77 MiB (4%)

    Capped by me

    Hidden Content:
    You must reply before you can see the hidden data contained here.
     
    Last edited: Nov 5, 2015
    DETOX, 777josem, Puchacz93 and 4 others like this.
  2. rhea

    rhea Well-Known Member

    Joined:
    Jan 6, 2014
    Messages:
    5,396
    Likes Received:
    260
    thank you so much!
     
  3. Dfrazzer

    Dfrazzer Super Moderator Staff Member Super Moderator Capper V . I . P. Donor

    Joined:
    Nov 4, 2013
    Messages:
    3,941
    Likes Received:
    7,894
    Thanks it's a great video.
     
    Dreamer likes this.
  4. xcxshunfeng

    xcxshunfeng Active Member

    Joined:
    Aug 31, 2014
    Messages:
    297
    Likes Received:
    27
  5. DETOX

    DETOX Well-Known Member V . I . P. Uploader

    Joined:
    Feb 20, 2014
    Messages:
    2,786
    Likes Received:
    15,007
    Thank you so much!
     
    Dreamer likes this.
  6. Jose_Moreira_2014

    Jose_Moreira_2014 Member

    Joined:
    Oct 23, 2014
    Messages:
    132
    Likes Received:
    7
    Gracias Amigo
     
  7. Hyrus

    Hyrus Arianator / Selenator / Victorian / LBS* Donor

    Joined:
    Feb 9, 2015
    Messages:
    1,105
    Likes Received:
    628
    Thanks a lot for the beautiful Ari :happy:
     
    Dreamer likes this.
  8. nolynexor88

    nolynexor88 Active Member

    Joined:
    Sep 29, 2015
    Messages:
    868
    Likes Received:
    28
    Thank you.
     
  9. franklele

    franklele Well-Known Member

    Joined:
    Nov 11, 2013
    Messages:
    1,722
    Likes Received:
    74
    thank you very much
     
  10. Nytrpo

    Nytrpo Member

    Joined:
    May 5, 2014
    Messages:
    189
    Likes Received:
    2
    thanks bruh
     
  11. Joseph

    Joseph Active Member

    Joined:
    Dec 10, 2013
    Messages:
    733
    Likes Received:
    150
    THANK YOU!!!!!
     
  12. Zatimi

    Zatimi Active Member

    Joined:
    Aug 27, 2014
    Messages:
    604
    Likes Received:
    67
    thanks a lot
     
  13. luvmv

    luvmv Member

    Joined:
    Sep 7, 2014
    Messages:
    73
    Likes Received:
    0
    thank you
     
  14. Puchacz93

    Puchacz93 Well-Known Member

    Joined:
    Feb 4, 2015
    Messages:
    1,206
    Likes Received:
    678
    Thank you.:love:
     
  15. noobster

    noobster Member

    Joined:
    Mar 16, 2014
    Messages:
    129
    Likes Received:
    2
    cheers man
     
  16. Crusha

    Crusha Well-Known Member Capper

    Joined:
    Oct 15, 2014
    Messages:
    2,350
    Likes Received:
    2,170
    thank you
     
  17. G D

    G D Member

    Joined:
    Dec 1, 2014
    Messages:
    201
    Likes Received:
    3
    Thank you
     
  18. hungquocphan

    hungquocphan Member

    Joined:
    Nov 1, 2013
    Messages:
    445
    Likes Received:
    12
    thank for share
     
  19. 777josem

    777josem Well-Known Member Uploader

    Joined:
    Sep 1, 2014
    Messages:
    2,447
    Likes Received:
    1,332
    Thank you so much!
     
  20. Grailen

    Grailen Well-Known Member

    Joined:
    Oct 8, 2013
    Messages:
    549
    Likes Received:
    566
    thank you