Ariana Grande feat. Zedd - Break Free (Trace HD-1080i)-Olgold

Discussion in 'TRACE URBAN HD' started by Olgold, Aug 25, 2015.

  1. Olgold

    Olgold Well-Known Member Capper

    Joined:
    Aug 19, 2015
    Messages:
    435
    Likes Received:
    1,500
    [​IMG]
    General
    Format : MPEG-TS
    File size : 193 MiB
    Duration : 3mn 31s
    Overall bit rate mode : Variable
    Overall bit rate : 7 661 Kbps

    Video
    Format : AVC
    Format/Info : Advanced Video Codec
    Format profile : [email protected]
    Format settings, CABAC : Yes
    Format settings, ReFrames : 4 frames
    Duration : 3mn 31s
    Bit rate : 7 089 Kbps
    Width : 1 920 pixels
    Height : 1 080 pixels
    Display aspect ratio : 16:9
    Frame rate : 25.000 fps
    Standard : Component
    Color space : YUV
    Chroma subsampling : 4:2:0
    Bit depth : 8 bits
    Scan type : Interlaced
    Scan order : Top Field First
    Bits/(Pixel*Frame) : 0.137
    Stream size : 179 MiB (92%)
    Color range : Limited

    Audio
    Format : MPEG Audio
    Format version : Version 1
    Format profile : Layer 2
    Duration : 3mn 31s
    Bit rate mode : Constant
    Bit rate : 192 Kbps
    Channel(s) : 2 channels
    Sampling rate : 48.0 KHz
    Compression mode : Lossy
    Delay relative to video : 7ms
    Stream size : 4.84 MiB (3%)
    Language : English
    Language, more info : Clean effects

    Hidden Content:
    You must reply before you can see the hidden data contained here.
     
    stu1874, rhea, CELOBRAZiL and 2 others like this.
  2. Ank-hell

    Ank-hell Well-Known Member V . I . P.

    Joined:
    Dec 21, 2013
    Messages:
    1,422
    Likes Received:
    5,512
    V Tkhs
     
  3. santa321

    santa321 Well-Known Member

    Joined:
    Dec 7, 2013
    Messages:
    1,240
    Likes Received:
    28
    thank you
     
  4. Hyrus

    Hyrus Arianator / Selenator / Victorian / LBS* Donor

    Joined:
    Feb 9, 2015
    Messages:
    1,141
    Likes Received:
    712
    Thanks. Ariana looks beautiful in this video... and in all the others too :happy::victory:
     
  5. rhea

    rhea Well-Known Member

    Joined:
    Jan 6, 2014
    Messages:
    5,648
    Likes Received:
    365
    thank you so much :)
     
  6. Crusha

    Crusha Well-Known Member Capper

    Joined:
    Oct 15, 2014
    Messages:
    2,350
    Likes Received:
    2,250
    thank you
     
  7. Puchacz93

    Puchacz93 Well-Known Member

    Joined:
    Feb 4, 2015
    Messages:
    1,206
    Likes Received:
    701
    Thank you.
     
  8. Zatimi

    Zatimi Active Member

    Joined:
    Aug 27, 2014
    Messages:
    633
    Likes Received:
    77
    thanks a lot
     
  9. stu1874

    stu1874 New Member

    Joined:
    Oct 31, 2015
    Messages:
    5
    Likes Received:
    0
    thank you
     
  10. limonato

    limonato Member

    Joined:
    Dec 1, 2014
    Messages:
    205
    Likes Received:
    3
    thank you :happy:
     
  11. deathstroke

    deathstroke Member

    Joined:
    Nov 13, 2015
    Messages:
    95
    Likes Received:
    5
  12. hardcoregamer40

    hardcoregamer40 Member

    Joined:
    May 9, 2016
    Messages:
    86
    Likes Received:
    5
    awesome
     
  13. Cyberbob

    Cyberbob Member

    Joined:
    May 27, 2016
    Messages:
    156
    Likes Received:
    1
    thanks!
     
  14. ALP3R

    ALP3R Member

    Joined:
    Apr 19, 2014
    Messages:
    125
    Likes Received:
    3
    thanks for this
     
  15. 80ss

    80ss Member

    Joined:
    Nov 3, 2016
    Messages:
    249
    Likes Received:
    0
    Thanks
     
  16. hanshermann

    hanshermann Active Member

    Joined:
    Aug 24, 2016
    Messages:
    3,526
    Likes Received:
    23
    wahts taht