CC Ariana Grande Feat. Mac Miller - The Way (MUCHHD-1080i-DD5.1-AmazonBoy) [CC]

Discussion in 'MUCH HD' started by rgf72k, Nov 3, 2013.

  1. rgf72k

    rgf72k Founder Staff Member AdMiN

    Joined:
    Oct 1, 2013
    Messages:
    1,022
    Likes Received:
    15,560

    [​IMG]


    Format : MPEG-TS
    File size : 385 MiB
    Duration : 3mn 52s
    Overall bit rate mode : Variable
    Overall bit rate : 13.9 Mbps
    Maximum Overall bit rate : 35.5 Mbps
    Movie name : New Music Videos
    Law rating : E

    Video
    ID : 4113 (0x1011)
    Menu ID : 1 (0x1)
    Format : MPEG Video
    Format version : Version 2
    Format profile : [email protected]
    Format settings, BVOP : Yes
    Format settings, Matrix : Custom
    Format settings, GOP : Variable
    Format settings, picture structure : Frame
    Codec ID : 2
    Duration : 3mn 52s
    Bit rate mode : Variable
    Bit rate : 12.8 Mbps
    Maximum bit rate : 24.0 Mbps
    Width : 1 920 pixels
    Height : 1 080 pixels
    Display aspect ratio : 16:9
    Frame rate : 29.970 fps
    Color space : YUV
    Chroma subsampling : 4:2:0
    Bit depth : 8 bits
    Scan type : Interlaced
    Scan order : Top Field First
    Compression mode : Lossy
    Bits/(Pixel*Frame) : 0.207
    Time code of first frame : 00:00:00;00
    Time code source : Group of pictures header
    Stream size : 356 MiB (92%)

    Audio
    ID : 4352 (0x1100)
    Menu ID : 1 (0x1)
    Format : AC-3
    Format/Info : Audio Coding 3
    Mode extension : CM (complete main)
    Format settings, Endianness : Big
    Codec ID : 129
    Duration : 3mn 52s
    Bit rate mode : Constant
    Bit rate : 384 Kbps
    Channel(s) : 6 channels
    Channel positions : Front: L C R, Side: L R, LFE
    Sampling rate : 48.0 KHz
    Bit depth : 16 bits
    Compression mode : Lossy
    Stream size : 10.6 MiB (3%)
    Language : English

    Text #1
    ID : 4113 (0x1011)-CC1
    Menu ID : 1 (0x1)
    Format : EIA-608
    Muxing mode : A/53 / DTVCC Transport
    Muxing mode, more info : Muxed in Video #1
    Duration : 3mn 52s
    Bit rate mode : Constant
    Stream size : 0.00 Byte (0%)

    Text #2
    ID : 4113 (0x1011)-1
    Menu ID : 1 (0x1)
    Format : EIA-708
    Muxing mode : A/53 / DTVCC Transport
    Muxing mode, more info : Muxed in Video #1
    Duration : 3mn 52s
    Bit rate mode : Constant
    Stream size : 0.00 Byte (0%)


    Link:
    Hidden Content:
    You must reply before you can see the hidden data contained here.
     
    Last edited by a moderator: Dec 8, 2015
    Vinny, indreams2011, boy and 9 others like this.
  2. Loading...


  3. Ari10i

    Ari10i Active Member

    Joined:
    Oct 7, 2013
    Messages:
    96
    Likes Received:
    45
    Thank you very much!!! :D :D
     
  4. Dfrazzer

    Dfrazzer Super Moderator Staff Member Super Moderator Capper V . I . P. Donor

    Joined:
    Nov 4, 2013
    Messages:
    4,765
    Likes Received:
    10,350
    Thanks Ariana is such an amazing singer.
     
    Ari10i likes this.
  5. auorine

    auorine Member

    Joined:
    Nov 23, 2013
    Messages:
    52
    Likes Received:
    0
    Thanks
     
  6. Ank-hell

    Ank-hell nɪhɪl V . I . P.

    Joined:
    Dec 21, 2013
    Messages:
    1,484
    Likes Received:
    6,089
    Thanks
     
  7. faizan

    faizan Member

    Joined:
    Mar 9, 2014
    Messages:
    44
    Likes Received:
    0
  8. MCTR

    MCTR Active Member

    Joined:
    Feb 23, 2014
    Messages:
    295
    Likes Received:
    41
    thanks
     
  9. slill

    slill Active Member

    Joined:
    Jul 25, 2014
    Messages:
    1,068
    Likes Received:
    15
    thanks for sharing
     
  10. Kaiquegpp

    Kaiquegpp Member

    Joined:
    Jul 7, 2014
    Messages:
    372
    Likes Received:
    17
  11. Robad

    Robad New Member

    Joined:
    Dec 20, 2014
    Messages:
    24
    Likes Received:
    0
    thanks
     
  12. Binh

    Binh Member

    Joined:
    Nov 18, 2013
    Messages:
    86
    Likes Received:
    1
    thanks
     
  13. 777josem

    777josem ProRes 1080p LPCM V . I . P. Uploader

    Joined:
    Sep 1, 2014
    Messages:
    3,679
    Likes Received:
    2,857
    Thank you
     
  14. lukierrywhere

    lukierrywhere Member

    Joined:
    May 1, 2015
    Messages:
    170
    Likes Received:
    4
  15. Marcelo Garcia Junior

    Marcelo Garcia Junior Member

    Joined:
    Jun 3, 2015
    Messages:
    531
    Likes Received:
    13
  16. jayananda

    jayananda Active Member

    Joined:
    Jan 14, 2015
    Messages:
    568
    Likes Received:
    169
    Thank You
     
  17. Zeeh

    Zeeh Rallyforrivers.org

    Joined:
    Mar 20, 2015
    Messages:
    670
    Likes Received:
    23
    Let us see that quality

    hm. The passphrase isn't working.
     
    Last edited: Feb 8, 2016
  18. Praveen867

    Praveen867 Member

    Joined:
    Nov 14, 2016
    Messages:
    531
    Likes Received:
    3
    Dfrazzer
     
  19. revilo18

    revilo18 Well-Known Member

    Joined:
    May 26, 2016
    Messages:
    1,854
    Likes Received:
    85
    THANKKK
     
  20. ifuseekme

    ifuseekme Member

    Joined:
    Jun 26, 2016
    Messages:
    135
    Likes Received:
    7
  21. hanshermann

    hanshermann Well-Known Member Uploader

    Joined:
    Aug 24, 2016
    Messages:
    4,817
    Likes Received:
    2,934
    wahts taht