Ariana Grande Feat. Iggy Azalea - Problem (DISNEYHD-1080i-AAC2.0-Dfrazzer)-HDMania

Discussion in 'DISNEY HD' started by Dfrazzer, Jul 20, 2015.

  1. Dfrazzer

    Dfrazzer Super Moderator Staff Member Super Moderator Capper V . I . P. Donor

    Joined:
    Nov 4, 2013
    Messages:
    3,825
    Likes Received:
    7,499
    [​IMG] [​IMG] [​IMG] [​IMG] [​IMG] [​IMG]

    Code:
    General
    ID : 1 (0x1)
    Complete name : C:\Users\Dfrazzer\Desktop\Ariana Grande Ft Iggy Azalea - Problem Disney Channel 1080i HDMania.ts
    Format : MPEG-TS
    File size : 298 MiB
    Duration : 3mn 20s
    Overall bit rate mode : Variable
    Overall bit rate : 12.5 Mbps
    
    Video
    ID : 100 (0x64)
    Menu ID : 2 (0x2)
    Format : AVC
    Format/Info : Advanced Video Codec
    Format profile : [email protected]
    Format settings, CABAC : Yes
    Format settings, ReFrames : 2 frames
    Codec ID : 27
    Duration : 3mn 20s
    Bit rate mode : Variable
    Bit rate : 11.7 Mbps
    Maximum bit rate : 24.0 Mbps
    Width : 1 920 pixels
    Height : 1 080 pixels
    Display aspect ratio : 16:9
    Frame rate : 25.000 fps
    Color space : YUV
    Chroma subsampling : 4:2:0
    Bit depth : 8 bits
    Scan type : Interlaced
    Scan order : Top Field First
    Bits/(Pixel*Frame) : 0.225
    Stream size : 278 MiB (93%)
    Color primaries : BT.709
    Transfer characteristics : BT.709
    Matrix coefficients : BT.709
    
    Audio
    ID : 101 (0x65)
    Menu ID : 2 (0x2)
    Format : AAC
    Format/Info : Advanced Audio Codec
    Format version : Version 4
    Format profile : LC
    Muxing mode : ADTS
    Codec ID : 15
    Duration : 3mn 19s
    Bit rate mode : Variable
    Bit rate : 220 Kbps
    Channel(s) : 2 channels
    Channel positions : Front: L R
    Sampling rate : 48.0 KHz
    Compression mode : Lossy
    Stream size : 5.24 MiB (2%)
    
    Hidden Content:
    You must reply before you can see the hidden data contained here.
    Capped by me.
     
  2. Loading...


  3. 777josem

    777josem Well-Known Member Uploader

    Joined:
    Sep 1, 2014
    Messages:
    2,341
    Likes Received:
    1,252
    Thank you so much!
     
  4. rhea

    rhea Well-Known Member

    Joined:
    Jan 6, 2014
    Messages:
    5,193
    Likes Received:
    250
    thank you so much :)
     
  5. Ank-hell

    Ank-hell Well-Known Member V . I . P.

    Joined:
    Dec 21, 2013
    Messages:
    1,416
    Likes Received:
    5,048
    V Tkhns
     
  6. Joseph

    Joseph Active Member

    Joined:
    Dec 10, 2013
    Messages:
    726
    Likes Received:
    144
    thank you
     
  7. santa321

    santa321 Active Member

    Joined:
    Dec 7, 2013
    Messages:
    1,164
    Likes Received:
    21
    thank you
     
  8. Crusha

    Crusha Well-Known Member Capper

    Joined:
    Oct 15, 2014
    Messages:
    2,349
    Likes Received:
    2,063
    thank you!!
     
  9. Hyrus

    Hyrus Arianator / Selenator / Victorian / LBS* Donor

    Joined:
    Feb 9, 2015
    Messages:
    1,060
    Likes Received:
    516
    Thank you. I love this song :happy:
     
  10. yukides

    yukides Active Member

    Joined:
    Nov 15, 2013
    Messages:
    160
    Likes Received:
    75
    Thank you :D
     
  11. Michaelb_B90210

    Michaelb_B90210 Member

    Joined:
    Apr 4, 2015
    Messages:
    45
    Likes Received:
    6
    Thank you!!!!!
     
  12. Dreamer

    Dreamer ♫ It's Britney Bitch ♫ Capper Uploader

    Joined:
    Dec 4, 2014
    Messages:
    2,136
    Likes Received:
    1,796
    Thank you :)
     
  13. edgar

    edgar Well-Known Member

    Joined:
    Oct 12, 2013
    Messages:
    1,360
    Likes Received:
    1,220
    Thank you So Much!:love::love:
     
  14. vlst

    vlst Member

    Joined:
    Nov 9, 2015
    Messages:
    420
    Likes Received:
    8
    Thanks DF!
     
  15. slash

    slash Member

    Joined:
    Mar 17, 2016
    Messages:
    63
    Likes Received:
    1
    thanks
     
  16. Pavulon

    Pavulon Member

    Joined:
    Mar 22, 2016
    Messages:
    925
    Likes Received:
    10
    thanks
     
  17. slill

    slill Member

    Joined:
    Jul 25, 2014
    Messages:
    890
    Likes Received:
    7
    thanks
     
  18. BinhTVT

    BinhTVT Member

    Joined:
    Jun 30, 2015
    Messages:
    175
    Likes Received:
    3
    thanks
     
  19. NikoZeman

    NikoZeman Member

    Joined:
    Nov 23, 2016
    Messages:
    46
    Likes Received:
    1
    thank you