Ariana Grande - Dangerous Woman [Visual 1] (MULTISHOWHD-1080i-DD5.1-Crusha)

Discussion in 'MULTISHOW HD' started by Crusha, Apr 6, 2016.

  1. Crusha

    Crusha Well-Known Member Capper V . I . P.

    Joined:
    Oct 15, 2014
    Messages:
    2,359
    Likes Received:
    2,860
    [​IMG] [​IMG] [​IMG] [​IMG] [​IMG]

    Mediainfo

    General
    ID : 1 (0x1)
    Complete name : Ariana Grande - Dangerous Woman (Visual 1) (MULTISHOW.HD.1080i.DD5.1).-Crusha.ts
    Format : MPEG-TS
    File size : 90.1 MiB
    Duration : 3mn 48s
    Overall bit rate mode : Variable
    Overall bit rate : 3 304 Kbps

    Video
    ID : 2593 (0xA21)
    Menu ID : 2542 (0x9EE)
    Format : AVC
    Format/Info : Advanced Video Codec
    Format profile : High@L4
    Format settings, CABAC : Yes
    Format settings, ReFrames : 4 frames
    Codec ID : 27
    Duration : 3mn 48s
    Bit rate : 2 753 Kbps
    Width : 1 920 pixels
    Height : 1 080 pixels
    Display aspect ratio : 16:9
    Frame rate : 29.970 fps
    Standard : Component
    Color space : YUV
    Chroma subsampling : 4:2:0
    Bit depth : 8 bits
    Scan type : MBAFF
    Scan order : Top Field First
    Bits/(Pixel*Frame) : 0.044
    Stream size : 75.0 MiB (83%)
    Color range : Limited
    Color primaries : BT.709
    Transfer characteristics : BT.709
    Matrix coefficients : BT.709

    Audio
    ID : 3593 (0xE09)
    Menu ID : 2542 (0x9EE)
    Format : AC-3
    Format/Info : Audio Coding 3
    Mode extension : CM (complete main)
    Format settings, Endianness : Big
    Codec ID : 6
    Duration : 3mn 48s
    Bit rate mode : Constant
    Bit rate : 384 Kbps
    Channel(s) : 6 channels
    Channel positions : Front: L C R, Side: L R, LFE
    Sampling rate : 48.0 KHz
    Bit depth : 16 bits
    Compression mode : Lossy
    Stream size : 10.5 MiB (12%)
    Language : Portuguese
    Hidden Content:
    You must reply before you can see the hidden data contained here.
    Password: crusha
     
    eks22, danixat and Hyrus like this.
  2. Loading...


  3. Hyrus

    Hyrus Arianator / Selenator / Victorian / Saxobeat / LBS Donor

    Joined:
    Feb 9, 2015
    Messages:
    1,430
    Likes Received:
    1,348
    Thanks a lot for the hot Ari!! Amazing video :D:happy:
     
    Crusha likes this.
  4. Snorom6

    Snorom6 Well-Known Member V . I . P. Uploader

    Joined:
    Dec 17, 2015
    Messages:
    4,248
    Likes Received:
    5,859
  5. submariner9728

    submariner9728 Well-Known Member

    Joined:
    Dec 26, 2014
    Messages:
    1,105
    Likes Received:
    26
    thank
     
    Crusha likes this.
  6. santa321

    santa321 Well-Known Member

    Joined:
    Dec 7, 2013
    Messages:
    1,662
    Likes Received:
    62
    thank you
     
    Crusha likes this.
  7. danixat

    danixat Katycat ^-^ Capper V . I . P. Donor

    Joined:
    Feb 23, 2014
    Messages:
    1,202
    Likes Received:
    7,741
    Thanks! :victory:
     
    Crusha likes this.
  8. Joseph

    Joseph Active Member

    Joined:
    Dec 10, 2013
    Messages:
    753
    Likes Received:
    180
    thank you
     
  9. juanjserrano7

    juanjserrano7 Member

    Joined:
    Feb 22, 2016
    Messages:
    198
    Likes Received:
    8
  10. Danielcha

    Danielcha Member

    Joined:
    Sep 20, 2014
    Messages:
    176
    Likes Received:
    10
    thanks so much