Ariana Grande - Breathin' MTVHD 1080i HDTV DD2.0 H.264 CELOBRAZiL-HDMania

Discussion in 'MTV HD' started by CELOBRAZiL, Mar 14, 2019.

  1. CELOBRAZiL

    CELOBRAZiL Well-Known Member Capper V . I . P. Donor

    Joined:
    Oct 2, 2013
    Messages:
    6,907
    Likes Received:
    22,494
    Ariana Grande - Breathin' MTVHD 1080i HDTV DD2.0 H.264 CELOBRAZiL-HDMania

    [​IMG]



    Format : MPEG-TS
    File size : 123 MiB
    Duration : 3 min 18 s
    Overall bit rate mode : Variable
    Overall bit rate : 5 210 kb/s

    Video
    ID : 4128 (0x1020)
    Menu ID : 5040 (0x13B0)
    Format : AVC
    Format/Info : Advanced Video Codec
    Format profile : High@L4
    Format settings : CABAC / 3 Ref Frames
    Format settings, CABAC : Yes
    Format settings, RefFrames : 3 frames
    Codec ID : 27
    Duration : 3 min 18 s
    Bit rate : 4 759 kb/s
    Width : 1 920 pixels
    Height : 1 080 pixels
    Display aspect ratio : 16:9
    Frame rate : 29.970 (30000/1001) FPS
    Color space : YUV
    Chroma subsampling : 4:2:0
    Bit depth : 8 bits
    Scan type : MBAFF
    Scan type, store method : Interleaved fields
    Scan order : Top Field First
    Bits/(Pixel*Frame) : 0.077
    Stream size : 113 MiB (91%)

    Audio
    ID : 4129 (0x1021)
    Menu ID : 5040 (0x13B0)
    Format : AC-3
    Format/Info : Audio Coding 3
    Commercial name : Dolby Digital
    Codec ID : 129
    Duration : 3 min 18 s
    Bit rate mode : Constant
    Bit rate : 192 kb/s
    Channel(s) : 2 channels
    Channel layout : L R
    Sampling rate : 48.0 kHz
    Frame rate : 31.250 FPS (1536 SPF)
    Bit depth : 16 bits
    Compression mode : Lossy
    Stream size : 4.54 MiB (4%)
    Language : English
    Service kind : Complete Main


    Link(s):
    Hidden Content:
    You must either reply or click 'Like' to see the hidden information contained here.
     
    Last edited: Mar 16, 2019
    ohyuhyuh, Joe1240, poshchick and 9 others like this.
  2. Loading...


  3. CELOBRAZiL

    CELOBRAZiL Well-Known Member Capper V . I . P. Donor

    Joined:
    Oct 2, 2013
    Messages:
    6,907
    Likes Received:
    22,494
  4. WANG RIN

    WANG RIN ❤️2Wish❤️Mean Phiravich❤️Ariana Grande❤️

    Joined:
    Jul 6, 2018
    Messages:
    408
    Likes Received:
    716
    Ariana so beautiful :) thank CELO :love::love:
     
    CELOBRAZiL likes this.
  5. akon111

    akon111 Well-Known Member

    Joined:
    Dec 29, 2015
    Messages:
    576
    Likes Received:
    287
    thank you
     
    CELOBRAZiL likes this.
  6. rvden

    rvden Well-Known Member

    Joined:
    Apr 9, 2017
    Messages:
    721
    Likes Received:
    520
    Thank you!
     
    CELOBRAZiL likes this.
  7. rhea

    rhea Well-Known Member

    Joined:
    Jan 6, 2014
    Messages:
    9,283
    Likes Received:
    1,459
    thank you so much! :)
     
    CELOBRAZiL likes this.
  8. ibarrientosv

    ibarrientosv Member

    Joined:
    Jul 23, 2017
    Messages:
    147
    Likes Received:
    19
    thank you hehe
     
    CELOBRAZiL likes this.
  9. Hyrus

    Hyrus Arianator / Selenator / Victorian / Saxobeat / LBS Donor

    Joined:
    Feb 9, 2015
    Messages:
    1,513
    Likes Received:
    1,553
    Thanks so much for Ari :):love:
     
    CELOBRAZiL likes this.
  10. maurohachen

    maurohachen Active Member

    Joined:
    Feb 24, 2015
    Messages:
    559
    Likes Received:
    45
    Gracias
     
    CELOBRAZiL likes this.
  11. Zatimi

    Zatimi Well-Known Member

    Joined:
    Aug 27, 2014
    Messages:
    1,038
    Likes Received:
    332
    Thanks a lot
     
    CELOBRAZiL likes this.
  12. CELOBRAZiL

    CELOBRAZiL Well-Known Member Capper V . I . P. Donor

    Joined:
    Oct 2, 2013
    Messages:
    6,907
    Likes Received:
    22,494
    Added Google Drive link! :)
     
    WANG RIN likes this.
  13. CELOBRAZiL

    CELOBRAZiL Well-Known Member Capper V . I . P. Donor

    Joined:
    Oct 2, 2013
    Messages:
    6,907
    Likes Received:
    22,494
    Added MEGA link! :)
     
    WANG RIN likes this.
  14. Joe1240

    Joe1240 Well-Known Member

    Joined:
    Apr 3, 2014
    Messages:
    669
    Likes Received:
    439
    Thanks for Ariana.
     
    CELOBRAZiL likes this.
  15. jayananda

    jayananda Well-Known Member

    Joined:
    Jan 14, 2015
    Messages:
    1,426
    Likes Received:
    342
    Thank You
     
    CELOBRAZiL likes this.
  16. rikylouis14

    rikylouis14 Well-Known Member

    Joined:
    Jun 27, 2016
    Messages:
    943
    Likes Received:
    826
    THANKS
     
    CELOBRAZiL likes this.
  17. Harry

    Harry Member

    Joined:
    Mar 4, 2014
    Messages:
    449
    Likes Received:
    12
    thank you!
     
    CELOBRAZiL likes this.
  18. fachoandre

    fachoandre Member

    Joined:
    Apr 28, 2019
    Messages:
    67
    Likes Received:
    3
    Me gusta mucho la canción
     
  19. bigray72

    bigray72 Member

    Joined:
    Jun 30, 2018
    Messages:
    314
    Likes Received:
    19