Anitta ft. Becky G - Banana (MTVHD-BR-AC3-1080i).-Crusha.ts

Discussion in 'MTV HD' started by Crusha, Oct 30, 2019.

  1. Crusha

    Crusha Well-Known Member Capper V . I . P.

    Joined:
    Oct 15, 2014
    Messages:
    2,534
    Likes Received:
    3,815
    [​IMG]

    Mediainfo
    General
    ID : 1 (0x1)
    Complete name : Anitta ft. Becky G - Banana (MTVHD-BR-AC3-1080i).-Crusha.ts
    Format : MPEG-TS
    File size : 99.3 MiB
    Duration : 3 min 15 s
    Overall bit rate mode : Variable
    Overall bit rate : 4 261 kb/s

    Video
    ID : 2189 (0x88D)
    Menu ID : 1 (0x1)
    Format : AVC
    Format/Info : Advanced Video Codec
    Format profile : High@L4
    Format settings, CABAC : Yes
    Format settings, RefFrames : 4 frames
    Format settings, GOP : M=8, N=32
    Codec ID : 27
    Duration : 3 min 15 s
    Bit rate : 3 857 kb/s
    Width : 1 920 pixels
    Height : 1 080 pixels
    Display aspect ratio : 16:9
    Frame rate : 29.970 (30000/1001) FPS
    Standard : Component
    Color space : YUV
    Chroma subsampling : 4:2:0
    Bit depth : 8 bits
    Scan type : MBAFF
    Scan type, store method : Interleaved fields
    Scan order : Top Field First
    Bits/(Pixel*Frame) : 0.062
    Stream size : 89.9 MiB (91%)
    Color range : Limited
    Color primaries : BT.709
    Transfer characteristics : BT.709
    Matrix coefficients : BT.709

    Audio
    ID : 3484 (0xD9C)
    Menu ID : 1 (0x1)
    Format : AC-3
    Format/Info : Audio Coding 3
    Format settings, Endianness : Big
    Codec ID : 6
    Duration : 3 min 15 s
    Bit rate mode : Constant
    Bit rate : 192 kb/s
    Channel(s) : 2 channels
    Channel positions : Front: L R
    Sampling rate : 48.0 kHz
    Frame rate : 31.250 FPS (1536 SPF)
    Bit depth : 16 bits
    Compression mode : Lossy
    Stream size : 4.48 MiB (5%)
    Language : English
    Service kind : Complete Main

    Hidden Content:
    You must reply before you can see the hidden data contained here.
    Password: crusha
     
  2. Loading...


  3. rhea

    rhea Well-Known Member

    Joined:
    Jan 6, 2014
    Messages:
    10,735
    Likes Received:
    2,001
    thank you so much!
     
  4. M_pachenar

    M_pachenar Member

    Joined:
    Oct 26, 2019
    Messages:
    102
    Likes Received:
    3
    Thanks
     
  5. arman90

    arman90 Active Member

    Joined:
    Feb 25, 2017
    Messages:
    307
    Likes Received:
    33
    thank u
     
  6. popstar1

    popstar1 Member

    Joined:
    Jul 1, 2017
    Messages:
    173
    Likes Received:
    2
    thnaks
     
  7. adde25

    adde25 Member

    Joined:
    Mar 17, 2019
    Messages:
    78
    Likes Received:
    8
    thanks
     
  8. natashar

    natashar Member

    Joined:
    May 20, 2018
    Messages:
    331
    Likes Received:
    10
    thanks
     
  9. bigray72

    bigray72 Active Member

    Joined:
    Jun 30, 2018
    Messages:
    652
    Likes Received:
    61
    thanks
     
  10. surendra4477

    surendra4477 Member

    Joined:
    Nov 10, 2019
    Messages:
    320
    Likes Received:
    5
  11. ranasky

    ranasky Member

    Joined:
    Aug 30, 2017
    Messages:
    63
    Likes Received:
    4
    Thanks
     
  12. drthantzin

    drthantzin Member

    Joined:
    Feb 2, 2018
    Messages:
    117
    Likes Received:
    1
  13. MACHADO

    MACHADO Active Member

    Joined:
    Jun 12, 2017
    Messages:
    702
    Likes Received:
    64
    gracias