Ani Hoang - Zagasete svetlinie (2012) Planeta HDTV (1080p)

Discussion in 'PLANETA HD' started by HDTiVi, Jul 10, 2014.

  1. HDTiVi

    HDTiVi Active Member

    Joined:
    Jun 16, 2014
    Messages:
    37
    Likes Received:
    252
    Ani Hoang - Zagasete svetlinie (2012) Planeta HDTV (1080p)
    [​IMG]
    [​IMG]
    Format : MPEG-PS
    File size : 200 MiB
    Duration : 3mn 31s
    Overall bit rate : 7 931 Kbps

    Video
    ID : 224 (0xE0)
    Format : AVC
    Format/Info : Advanced Video Codec
    Format profile : Main@L4.0
    Format settings, CABAC : Yes
    Format settings, ReFrames : 4 frames
    Duration : 3mn 31s
    Bit rate : 7 517 Kbps
    Width : 1 920 pixels
    Height : 1 080 pixels
    Display aspect ratio : 16:9
    Frame rate : 25.000 fps
    Standard : Component
    Color space : YUV
    Chroma subsampling : 4:2:0
    Bit depth : 8 bits
    Scan type : Interlaced
    Scan order : Top Field First
    Bits/(Pixel*Frame) : 0.145
    Stream size : 190 MiB (95%)
    Color primaries : BT.709
    Transfer characteristics : BT.709
    Matrix coefficients : BT.709

    Audio
    ID : 192 (0xC0)
    Format : MPEG Audio
    Format version : Version 1
    Format profile : Layer 2
    Duration : 3mn 31s
    Bit rate mode : Constant
    Bit rate : 256 Kbps
    Channel count : 2 channels
    Sampling rate : 48.0 KHz
    Compression mode : Lossy
    Delay relative to video : 24ms
    Stream size : 6.47 MiB (3%)

    Hidden Content:
    You must either reply or click 'Like' to see the hidden information contained here.
     
    Last edited: Nov 18, 2015
  2. rhea

    rhea Well-Known Member

    Joined:
    Jan 6, 2014
    Messages:
    5,258
    Likes Received:
    253
    thanks
     
  3. HDTiVi

    HDTiVi Active Member

    Joined:
    Jun 16, 2014
    Messages:
    37
    Likes Received:
    252
    Links updated :victory:
     
  4. araz

    araz New Member

    Joined:
    Nov 13, 2016
    Messages:
    17
    Likes Received:
    0
    thanks