HDTV Anavitória Feat. Matheus & Kauan - True Colors + Fica + Te assumi pro Brasil - Prêmio Multishow 2017

Discussion in 'HD Live Performances' started by CELOBRAZiL, Oct 27, 2017.

  1. CELOBRAZiL

    CELOBRAZiL Well-Known Member Capper V . I . P. Donor

    Joined:
    Oct 2, 2013
    Messages:
    5,293
    Likes Received:
    16,882
    Anavitória Feat. Matheus & Kauan - True Colors + Fica + Te assumi pro Brasil - Prêmio Multishow 2017 [Reprise] MULTISHOWHD 1080i HDTV DD5.1 H.264 CELOBRAZiL-HDMania

    [​IMG]



    Format : MPEG-TS
    File size : 465 MiB
    Duration : 4mn 46s
    Overall bit rate mode : Variable
    Overall bit rate : 13.6 Mbps

    Video
    ID : 1328 (0x530)
    Menu ID : 1336 (0x538)
    Format : AVC
    Format/Info : Advanced Video Codec
    Format profile : High@L4
    Format settings, CABAC : Yes
    Format settings, ReFrames : 4 frames
    Codec ID : 27
    Duration : 4mn 48s
    Bit rate : 12.6 Mbps
    Width : 1 920 pixels
    Height : 1 080 pixels
    Display aspect ratio : 16:9
    Frame rate : 29.970 fps
    Color space : YUV
    Chroma subsampling : 4:2:0
    Bit depth : 8 bits
    Scan type : MBAFF
    Scan order : Top Field First
    Bits/(Pixel*Frame) : 0.202
    Stream size : 433 MiB (93%)

    Audio
    ID : 1329 (0x531)
    Menu ID : 1336 (0x538)
    Format : AC-3
    Format/Info : Audio Coding 3
    Mode extension : CM (complete main)
    Format settings, Endianness : Big
    Codec ID : 129
    Duration : 4mn 48s
    Bit rate mode : Constant
    Bit rate : 384 Kbps
    Channel(s) : 6 channels
    Channel positions : Front: L C R, Side: L R, LFE
    Sampling rate : 48.0 KHz
    Bit depth : 16 bits
    Compression mode : Lossy
    Stream size : 13.2 MiB (3%)
    Language : English

    Link(s):
    Hidden Content:
    You must either reply or click 'Like' to see the hidden information contained here.
     
    rkn9 and Vinny like this.
  2. Loading...


  3. CELOBRAZiL

    CELOBRAZiL Well-Known Member Capper V . I . P. Donor

    Joined:
    Oct 2, 2013
    Messages:
    5,293
    Likes Received:
    16,882
  4. Pavulon

    Pavulon Well-Known Member Donor

    Joined:
    Mar 22, 2016
    Messages:
    4,476
    Likes Received:
    921
    thank you :)
     
    CELOBRAZiL likes this.
  5. Extazy4u2

    Extazy4u2 Well-Known Member

    Joined:
    Jan 26, 2017
    Messages:
    2,485
    Likes Received:
    262
    Thanks
     
    CELOBRAZiL likes this.
  6. junior.ca

    junior.ca Well-Known Member

    Joined:
    Jun 1, 2014
    Messages:
    1,482
    Likes Received:
    78
    obrigado