Anastacia - Paid My Dues (Rockamerica Remix) - 2001

Discussion in 'SD' started by J_Pablo, Jan 24, 2021.

  1. J_Pablo

    J_Pablo Well-Known Member

    Joined:
    Nov 27, 2013
    Messages:
    1,039
    Likes Received:
    627
    [​IMG]


    Format : MPEG-PS
    File size : 167 MiB
    Duration : 4 min 40 s
    Overall bit rate mode : Variable
    Overall bit rate : 5 002 kb/s

    Video
    ID : 224 (0xE0)
    Format : MPEG Video
    Format version : Version 2
    Format profile : Main@Main
    Format settings : CustomMatrix / BVOP
    Format settings, BVOP : Yes
    Format settings, Matrix : Custom
    Format settings, GOP : Variable
    Format settings, picture struc : Frame
    Duration : 4 min 40 s
    Bit rate mode : Variable
    Bit rate : 4 678 kb/s
    Maximum bit rate : 8 000 kb/s
    Width : 720 pixels
    Height : 480 pixels
    Display aspect ratio : 4:3
    Frame rate : 29.970 (30000/1001) FPS
    Standard : NTSC
    Color space : YUV
    Chroma subsampling : 4:2:0
    Bit depth : 8 bits
    Scan type : Interlaced
    Scan order : Top Field First
    Compression mode : Lossy
    Bits/(Pixel*Frame) : 0.452
    Time code of first frame : 00:00:00;00
    Time code source : Group of pictures header
    GOP, Open/Closed : Open
    GOP, Open/Closed of first fram : Closed
    Stream size : 157 MiB (94%)


    Audio
    ID : 189 (0xBD)-128 (0x80)
    Format : AC-3
    Format/Info : Audio Coding 3
    Commercial name : Dolby Digital
    Muxing mode : DVD-Video
    Duration : 4 min 40 s
    Bit rate mode : Constant
    Bit rate : 224 kb/s
    Channel(s) : 2 channels
    Channel layout : L R
    Sampling rate : 48.0 kHz
    Frame rate : 31.250 FPS (1536 SPF)
    Bit depth : 16 bits
    Compression mode : Lossy
    Stream size : 7.50 MiB (4%)
    Service kind : Complete Main

    Mediafire link
    Hidden Content:
    You must reply before you can see the hidden data contained here.
     
    sprockmusic likes this.
  2. Loading...


  3. 3veronicas

    3veronicas Well-Known Member

    Joined:
    Aug 26, 2016
    Messages:
    5,281
    Likes Received:
    447
    Thanks!
     
  4. sprockmusic

    sprockmusic Member

    Joined:
    Jun 23, 2019
    Messages:
    68
    Likes Received:
    5
    Thank you so much! Love her!