MOVIE Anaconda 3 : Offspring (2008) [1080p BD-REMUX/BDRip] [Dual Audio] [20GB/10GB]

Discussion in 'Cinema Center' started by KamiKat., Sep 16, 2020.

  1. KamiKat.

    KamiKat. Active Member

    Joined:
    Feb 5, 2017
    Messages:
    410
    Likes Received:
    109
    [​IMG]

    Anaconda 3 : Offspring

    >>INFORMATION<<


    Titulo Traduzido : Anaconda 3
    Original Title : Anaconda 3 : Offspring
    Release Date Of : 2008
    Genre : Action, Adventure, Horror, Thriller
    Format : Mkv
    Quality: 1080p BD-REMUX - 1080p BDRip
    Audio: English/Português
    Subtitle : PT-BR - English

    Video
    ID : 1
    Format : AVC
    Format/Info : Advanced Video Codec
    Format profile : High@L4.1
    Format settings : CABAC / 4 Ref Frames
    Format settings, CABAC : Yes
    Format settings, Reference fra : 4 frames
    Codec ID : V_MPEG4/ISO/AVC
    Duration : 1 h 31 min
    Bit rate mode : Variable
    Bit rate : 27.0 Mb/s
    Maximum bit rate : 35.0 Mb/s
    Width : 1 920 pixels
    Height : 1 080 pixels
    Display aspect ratio : 16:9
    Frame rate mode : Constant
    Frame rate : 23.976 (24000/1001) FPS
    Standard : Component
    Color space : YUV
    Chroma subsampling : 4:2:0
    Bit depth : 8 bits
    Scan type : Progressive
    Bits/(Pixel*Frame) : 0.543
    Stream size : 17.2 GiB (85%)
    Title : Anaconda 3 - Offspring
    Writing library : x264 core 148
    Language : English
    Default : Yes
    Forced : No
    Color range : Limited
    Color primaries : BT.709
    Transfer characteristics : BT.709
    Matrix coefficients : BT.709

    Audio #1
    ID : 2
    Format : DTS XLL
    Format/Info : Digital Theater Systems
    Commercial name : DTS-HD Master Audio
    Codec ID : A_DTS
    Duration : 1 h 31 min
    Bit rate mode : Variable
    Bit rate : 4 059 kb/s
    Channel(s) : 6 channels
    Channel layout : C L R Ls Rs LFE
    Sampling rate : 48.0 kHz
    Frame rate : 93.750 FPS (512 SPF)
    Bit depth : 24 bits
    Compression mode : Lossless
    Stream size : 2.59 GiB (13%)
    Title : English
    Language : English
    Default : Yes
    Forced : Yes

    Audio #2
    ID : 3
    Format : AC-3
    Format/Info : Audio Coding 3
    Commercial name : Dolby Digital
    Codec ID : A_AC3
    Duration : 1 h 31 min
    Bit rate mode : Constant
    Bit rate : 640 kb/s
    Channel(s) : 6 channels
    Channel layout : L R C LFE Ls Rs
    Sampling rate : 48.0 kHz
    Frame rate : 31.250 FPS (1536 SPF)
    Compression mode : Lossy
    Stream size : 418 MiB (2%)
    Title : PT-BR
    Language : Portuguese
    Service kind : Complete Main
    Default : No
    Forced : No

    Text #1
    ID : 4
    Format : PGS
    Muxing mode : zlib
    Codec ID : S_HDMV/PGS
    Codec ID/Info : Picture based subtitle format used on BDs/HD-DVDs
    Duration : 1 h 28 min
    Bit rate : 50.2 kb/s
    Count of elements : 2768
    Stream size : 31.7 MiB (0%)
    Title : Subtitle English
    Language : English
    Default : No
    Forced : No

    Text #2
    ID : 5
    Format : PGS
    Muxing mode : zlib
    Codec ID : S_HDMV/PGS
    Codec ID/Info : Picture based subtitle format used on BDs/HD-DVDs
    Duration : 1 h 26 min
    Bit rate : 32.7 kb/s
    Count of elements : 1836
    Stream size : 20.2 MiB (0%)
    Title : Legenda PT-BR
    Language : Portuguese
    Default : No
    Forced : No

    [​IMG]

    [​IMG] [​IMG] [​IMG] [​IMG]

    -------------------------------------------------------------------------------------------------------------------------------------------------------

    Video
    ID : 1
    Format : AVC
    Format/Info : Advanced Video Codec
    Format profile : High@L4
    Format settings : CABAC / 1 Ref Frames
    Format settings, CABAC : Yes
    Format settings, Reference fra : 1 frame
    Format settings, GOP : M=1, N=24
    Codec ID : V_MPEG4/ISO/AVC
    Duration : 1 h 31 min
    Bit rate mode : Variable
    Bit rate : 10.9 Mb/s
    Maximum bit rate : 13.8 Mb/s
    Width : 1 920 pixels
    Height : 1 080 pixels
    Display aspect ratio : 16:9
    Frame rate mode : Constant
    Frame rate : 23.976 (24000/1001) FPS
    Color space : YUV
    Chroma subsampling : 4:2:0
    Bit depth : 8 bits
    Scan type : Progressive
    Bits/(Pixel*Frame) : 0.219
    Stream size : 6.94 GiB (70%)
    Title : Anaconda 3 : Offspring
    Language : English
    Default : Yes
    Forced : No
    Color range : Limited
    Color primaries : BT.709
    Transfer characteristics : BT.709
    Matrix coefficients : BT.709

    Audio #1
    ID : 2
    Format : DTS XLL
    Format/Info : Digital Theater Systems
    Commercial name : DTS-HD Master Audio
    Codec ID : A_DTS
    Duration : 1 h 31 min
    Bit rate mode : Variable
    Bit rate : 4 059 kb/s
    Channel(s) : 6 channels
    Channel layout : C L R Ls Rs LFE
    Sampling rate : 48.0 kHz
    Frame rate : 93.750 FPS (512 SPF)
    Bit depth : 24 bits
    Compression mode : Lossless
    Stream size : 2.59 GiB (26%)
    Title : English
    Language : English
    Default : Yes
    Forced : Yes

    Audio #2
    ID : 3
    Format : AC-3
    Format/Info : Audio Coding 3
    Commercial name : Dolby Digital
    Codec ID : A_AC3
    Duration : 1 h 31 min
    Bit rate mode : Constant
    Bit rate : 640 kb/s
    Channel(s) : 6 channels
    Channel layout : L R C LFE Ls Rs
    Sampling rate : 48.0 kHz
    Frame rate : 31.250 FPS (1536 SPF)
    Compression mode : Lossy
    Stream size : 418 MiB (4%)
    Title : PT-BR
    Language : Portuguese
    Service kind : Complete Main
    Default : No
    Forced : No

    Text #1
    ID : 4
    Format : PGS
    Muxing mode : zlib
    Codec ID : S_HDMV/PGS
    Codec ID/Info : Picture based subtitle format used on BDs/HD-DVDs
    Duration : 1 h 28 min
    Bit rate : 50.2 kb/s
    Count of elements : 2768
    Stream size : 31.7 MiB (0%)
    Title : Subtitle English
    Language : English
    Default : No
    Forced : No

    Text #2
    ID : 5
    Format : PGS
    Muxing mode : zlib
    Codec ID : S_HDMV/PGS
    Codec ID/Info : Picture based subtitle format used on BDs/HD-DVDs
    Duration : 1 h 26 min
    Bit rate : 32.7 kb/s
    Count of elements : 1836
    Stream size : 20.2 MiB (0%)
    Title : Legenda PT-BR
    Language : Portuguese
    Default : No
    Forced : No

    [​IMG]

    [​IMG] [​IMG] [​IMG] [​IMG]

    -------------------------------------------------------------------------------------------------------------------------------------------------------

    Download Server - Google Drive - BD-REMUX

    Hidden Content:
    You must reply before you can see the hidden data contained here.

    -------------------------------------------------------------------------------------------------------------------------------------------------------

    Download Server - Google Drive - BD-Rip

    Hidden Content:
    You must reply before you can see the hidden data contained here.

    -------------------------------------------------------------------------------------------------------------------------------------------------------

    [​IMG]


     
  2. Loading...