Amy Winehouse - Rehab (VIVAHD-1080i-DD2.0-Djodjara)-HDMania

Discussion in 'VIVA HD' started by Djodjara, Sep 7, 2014.

  1. Djodjara

    Djodjara Gwen Fan Capper

    Joined:
    Sep 6, 2014
    Messages:
    653
    Likes Received:
    1,074
    Amy Winehouse - Rehab (VIVA HD 1080i - Djodjara)

    [​IMG]
    [​IMG]
    [​IMG]
    [​IMG]

    General:

    ID : 0 (0x0)
    Format : MPEG-TS
    File size : 226 MiB
    Duration : 3mn 33s
    Overall bit rate mode : Variable
    Overall bit rate : 8 871 Kbps

    Video:
    ID : 301 (0x12D)
    Menu ID : 1 (0x1)
    Format : AVC
    Format/Info : Advanced Video Codec
    Format profile : [email protected]
    Format settings, CABAC : Yes
    Format settings, ReFrames : 3 frames
    Codec ID : 27
    Duration : 3mn 33s
    Bit rate : 8 174 Kbps
    Width : 1 920 pixels
    Height : 1 080 pixels
    Display aspect ratio : 16:9
    Frame rate : 25.000 fps
    Color space : YUV
    Chroma subsampling : 4:2:0
    Bit depth : 8 bits
    Scan type : Interlaced
    Bits/(Pixel*Frame) : 0.158
    Stream size : 208 MiB (92%)
    Color primaries : BT.709
    Transfer characteristics : BT.709
    Matrix coefficients : BT.709

    Audio:
    ID : 302 (0x12E)
    Menu ID : 1 (0x1)
    Format : MPEG Audio
    Format version : Version 1
    Format profile : Layer 2
    Codec ID : 3
    Duration : 3mn 33s
    Bit rate mode : Constant
    Bit rate : 256 Kbps
    Channel count : 2 channels
    Sampling rate : 48.0 KHz
    Compression mode : Lossy
    Stream size : 6.51 MiB (3%)


    Hidden Content:
    You must either reply or click 'Like' to see the hidden information contained here.
     
  2. 江雨燃双鱼

    江雨燃双鱼 Active Member

    Joined:
    Apr 5, 2014
    Messages:
    585
    Likes Received:
    34
    wow sweet
     
    EDEKA likes this.
  3. Djodjara

    Djodjara Gwen Fan Capper

    Joined:
    Sep 6, 2014
    Messages:
    653
    Likes Received:
    1,074
    you're welcome :)
     
  4. dapape

    dapape Member

    Joined:
    Jun 9, 2014
    Messages:
    134
    Likes Received:
    1
  5. LLAVE1

    LLAVE1 Member

    Joined:
    Dec 4, 2013
    Messages:
    51
    Likes Received:
    4
    thanks
     
  6. Eric Macedo

    Eric Macedo Member

    Joined:
    Sep 22, 2014
    Messages:
    100
    Likes Received:
    3
  7. Danilo Martins

    Danilo Martins Member Donor

    Joined:
    Apr 8, 2014
    Messages:
    90
    Likes Received:
    1
  8. Albano Salinas

    Albano Salinas Well-Known Member

    Joined:
    Nov 6, 2014
    Messages:
    446
    Likes Received:
    787
    thanks.!-
     
  9. slill

    slill Member

    Joined:
    Jul 25, 2014
    Messages:
    910
    Likes Received:
    9
    thanks
     
  10. EDEKA

    EDEKA Member

    Joined:
    Sep 30, 2014
    Messages:
    53
    Likes Received:
    2
     
  11. MCTR

    MCTR Member

    Joined:
    Feb 23, 2014
    Messages:
    275
    Likes Received:
    23
    thnks
     
  12. hapiny

    hapiny Member

    Joined:
    Nov 24, 2014
    Messages:
    483
    Likes Received:
    6
    thanks
     
  13. limonato

    limonato Member

    Joined:
    Dec 1, 2014
    Messages:
    181
    Likes Received:
    1
  14. janito33

    janito33 Member

    Joined:
    Dec 10, 2014
    Messages:
    134
    Likes Received:
    1
    graciassssssss
     
  15. Gagawuv

    Gagawuv Active Member

    Joined:
    Jun 12, 2014
    Messages:
    488
    Likes Received:
    242
    Thanks for Amy
     
  16. 777josem

    777josem Well-Known Member Uploader

    Joined:
    Sep 1, 2014
    Messages:
    2,431
    Likes Received:
    1,308
    Thank you so much Djodjara :)
     
  17. alan

    alan Member

    Joined:
    Jun 27, 2015
    Messages:
    324
    Likes Received:
    7
    thanks you
     
  18. Regis

    Regis Active Member

    Joined:
    Jul 14, 2015
    Messages:
    997
    Likes Received:
    25
    Thanks for Amy
     
  19. tiemcanxien2

    tiemcanxien2 Member

    Joined:
    Oct 7, 2013
    Messages:
    71
    Likes Received:
    23
    thank you a lot
     
  20. Himperios

    Himperios Member

    Joined:
    Oct 11, 2015
    Messages:
    282
    Likes Received:
    14
    good