Amy Winehouse - Love Is A Losing Game (MTVLive-1080i-DD5.1)-Olgold

Discussion in 'MTV LIVE HD' started by Olgold, Aug 25, 2015.

  1. Olgold

    Olgold Well-Known Member Capper

    Joined:
    Aug 19, 2015
    Messages:
    435
    Likes Received:
    1,484
    [​IMG]
    General
    Format : MPEG-TS
    File size : 200 MiB
    Duration : 2mn 31s
    Overall bit rate mode : Variable
    Overall bit rate : 11.0 Mbps

    Video
    Format : AVC
    Format/Info : Advanced Video Codec
    Format profile : [email protected]
    Format settings, CABAC : Yes
    Format settings, ReFrames : 4 frames
    Duration : 2mn 31s
    Bit rate : 10.1 Mbps
    Width : 1 920 pixels
    Height : 1 080 pixels
    Display aspect ratio : 16:9
    Frame rate : 25.000 fps
    Color space : YUV
    Chroma subsampling : 4:2:0
    Bit depth : 8 bits
    Scan type : Interlaced
    Scan order : Top Field First
    Bits/(Pixel*Frame) : 0.194
    Stream size : 183 MiB (91%)
    Color range : Limited

    Audio
    Format : AC-3
    Format/Info : Audio Coding 3
    Mode extension : CM (complete main)
    Format settings, Endianness : Big
    Duration : 2mn 32s
    Bit rate mode : Constant
    Bit rate : 384 Kbps
    Channel(s) : 6 channels
    Channel positions : Front: L C R, Side: L R, LFE
    Sampling rate : 48.0 KHz
    Compression mode : Lossy
    Delay relative to video : 26ms
    Stream size : 6.96 MiB (3%)
    Language : English
    Language, more info : Clean effects
    Hidden Content:
    You must reply before you can see the hidden data contained here.
     
  2. Loading...


  3. rhea

    rhea Well-Known Member

    Joined:
    Jan 6, 2014
    Messages:
    5,534
    Likes Received:
    307
    thank you so much :)
     
  4. Albano Salinas

    Albano Salinas Well-Known Member

    Joined:
    Nov 6, 2014
    Messages:
    451
    Likes Received:
    825
    thanks so much!.-
     
  5. nigg0re

    nigg0re New Member

    Joined:
    Feb 3, 2016
    Messages:
    18
    Likes Received:
    0
    thx

    Please enter a message with at least 5 characters.
     
  6. carloskoschel

    carloskoschel Member

    Joined:
    Jul 22, 2016
    Messages:
    278
    Likes Received:
    11
    thanx a lot ev'rybody!
     
  7. toxic144

    toxic144 Well-Known Member Donor

    Joined:
    Sep 16, 2016
    Messages:
    340
    Likes Received:
    319
    Love her, thank you
     
  8. bobuk8888

    bobuk8888 New Member

    Joined:
    Jul 15, 2016
    Messages:
    20
    Likes Received:
    1
    thank you
     
  9. zepastel

    zepastel New Member

    Joined:
    May 16, 2015
    Messages:
    23
    Likes Received:
    0
    obrigado