HDTV Amy Macdonald - Dream On (Live @ C à vous - 22 feb 2017)-VodzigorLans

Discussion in 'HD Live Performances' started by CELOBRAZiL, Jan 12, 2018.

  1. CELOBRAZiL

    CELOBRAZiL Well-Known Member Capper V . I . P. Donor

    Joined:
    Oct 2, 2013
    Messages:
    5,545
    Likes Received:
    17,696
    Amy Macdonald - Dream On (Live @ C à vous - 22 feb 2017)-VodzigorLans

    [​IMG]



    Format : MPEG-TS
    File size : 145 MiB
    Duration : 3mn 39s
    Overall bit rate mode : Variable
    Overall bit rate : 5 539 Kbps

    Video
    ID : 420 (0x1A4)
    Menu ID : 1045 (0x415)
    Format : AVC
    Format/Info : Advanced Video Codec
    Format profile : High@L4
    Format settings, CABAC : Yes
    Format settings, ReFrames : 4 frames
    Format settings, GOP : M=8, N=24
    Codec ID : 27
    Duration : 3mn 39s
    Bit rate : 4 877 Kbps
    Width : 1 920 pixels
    Height : 1 080 pixels
    Display aspect ratio : 16:9
    Frame rate : 25.000 fps
    Standard : Component
    Color space : YUV
    Chroma subsampling : 4:2:0
    Bit depth : 8 bits
    Scan type : MBAFF
    Scan order : Top Field First
    Bits/(Pixel*Frame) : 0.094
    Stream size : 127 MiB (88%)
    Color range : Limited
    Color primaries : BT.709
    Transfer characteristics : BT.709
    Matrix coefficients : BT.709

    Audio #1
    ID : 430 (0x1AE)
    Menu ID : 1045 (0x415)
    Format : E-AC-3
    Format/Info : Audio Coding 3
    Format settings, Endianness : Big
    Codec ID : 6
    Duration : 3mn 39s
    Bit rate mode : Constant
    Bit rate : 128 Kbps
    Channel(s) : 2 channels
    Channel positions : Front: L R
    Sampling rate : 48.0 KHz
    Compression mode : Lossy
    Delay relative to video : -718ms
    Stream size : 3.34 MiB (2%)

    Audio #2
    ID : 431 (0x1AF)
    Menu ID : 1045 (0x415)
    Format : E-AC-3
    Format/Info : Audio Coding 3
    Format settings, Endianness : Big
    Codec ID : 6
    Duration : 3mn 39s
    Bit rate mode : Constant
    Bit rate : 128 Kbps
    Channel(s) : 2 channels
    Channel positions : Front: L R
    Sampling rate : 48.0 KHz
    Compression mode : Lossy
    Delay relative to video : -718ms
    Stream size : 3.34 MiB (2%)

    Audio #3
    ID : 432 (0x1B0)
    Menu ID : 1045 (0x415)
    Format : E-AC-3
    Format/Info : Audio Coding 3
    Format settings, Endianness : Big
    Codec ID : 6
    Duration : 3mn 39s
    Bit rate mode : Constant
    Bit rate : 128 Kbps
    Channel(s) : 2 channels
    Channel positions : Front: L R
    Sampling rate : 48.0 KHz
    Compression mode : Lossy
    Delay relative to video : -718ms
    Stream size : 3.34 MiB (2%)

    Text #1
    ID : 440 (0x1B8)
    Menu ID : 1045 (0x415)
    Format : DVB Subtitle
    Codec ID : 6
    Duration : 3mn 35s
    Delay relative to video : 1s 160ms
    Language : French

    Text #2
    ID : 441 (0x1B9)
    Menu ID : 1045 (0x415)
    Format : DVB Subtitle
    Codec ID : 6
    Language : French

    Link(s):
    Hidden Content:
    You must either reply or click 'Like' to see the hidden information contained here.
     
    rkn9, apl3, frisby and 3 others like this.
  2. Loading...


  3. CELOBRAZiL

    CELOBRAZiL Well-Known Member Capper V . I . P. Donor

    Joined:
    Oct 2, 2013
    Messages:
    5,545
    Likes Received:
    17,696
  4. rhea

    rhea Well-Known Member

    Joined:
    Jan 6, 2014
    Messages:
    8,083
    Likes Received:
    1,113
    thank you
     
    CELOBRAZiL likes this.
  5. multimediafm

    multimediafm Well-Known Member Donor

    Joined:
    Mar 27, 2014
    Messages:
    13,139
    Likes Received:
    1,045
    Thanks
     
    CELOBRAZiL likes this.
  6. ricards51

    ricards51 Active Member

    Joined:
    Oct 10, 2016
    Messages:
    931
    Likes Received:
    27
    very special
     
    CELOBRAZiL likes this.