HDTV Altas Horas [May-18-2019] - Sandy & Junior [Mar-21-2020] GLOBOHD 1080i HDTV DD5.1 H.264 CELOBRAZiL

Discussion in 'HD Live Performances' started by CELOBRAZiL, Mar 23, 2020.

  1. CELOBRAZiL

    CELOBRAZiL Well-Known Member Capper V . I . P. Donor

    Joined:
    Oct 2, 2013
    Messages:
    8,636
    Likes Received:
    30,858
    Altas Horas [May-18-2019] - Sandy & Junior [Mar-21-2020] GLOBOHD 1080i HDTV DD5.1 H.264 CELOBRAZiL-HDMania

    [​IMG]



    Format : MPEG-TS
    File size : 9.99 GiB
    Duration : 1 h 34 min
    Overall bit rate mode : Variable
    Overall bit rate : 15.1 Mb/s

    Video
    ID : 273 (0x111)
    Menu ID : 257 (0x101)
    Format : AVC
    Format/Info : Advanced Video Codec
    Format profile : High@L4
    Format settings : CABAC / 2 Ref Frames
    Format settings, CABAC : Yes
    Format settings, Reference frames : 2 frames
    Format settings, GOP : M=3, N=15
    Codec ID : 27
    Duration : 1 h 34 min
    Bit rate mode : Variable
    Bit rate : 13.7 Mb/s
    Maximum bit rate : 24.0 Mb/s
    Width : 1 920 pixels
    Height : 1 080 pixels
    Display aspect ratio : 16:9
    Frame rate : 29.970 (30000/1001) FPS
    Color space : YUV
    Chroma subsampling : 4:2:0
    Bit depth : 8 bits
    Scan type : Interlaced
    Scan type, store method : Separated fields
    Scan order : Top Field First
    Bits/(Pixel*Frame) : 0.220
    Stream size : 9.06 GiB (91%)
    Color range : Limited
    Color primaries : BT.709
    Transfer characteristics : BT.709
    Matrix coefficients : BT.709

    Audio
    ID : 277 (0x115)
    Menu ID : 257 (0x101)
    Format : AC-3
    Format/Info : Audio Coding 3
    Commercial name : Dolby Digital
    Codec ID : 129
    Duration : 1 h 34 min
    Bit rate mode : Constant
    Bit rate : 640 kb/s
    Channel(s) : 6 channels
    Channel layout : L R C LFE Ls Rs
    Sampling rate : 48.0 kHz
    Frame rate : 31.250 FPS (1536 SPF)
    Compression mode : Lossy
    Stream size : 435 MiB (4%)
    Language : English
    Service kind : Complete Main


    Link(s):
    Hidden Content:
    You must either reply or click 'Like' to see the hidden information contained here.
     
    rkn9, Y.z, Diamond and 11 others like this.
  2. Loading...


  3. CELOBRAZiL

    CELOBRAZiL Well-Known Member Capper V . I . P. Donor

    Joined:
    Oct 2, 2013
    Messages:
    8,636
    Likes Received:
    30,858
    :love::love::love:

    Added GOOGLE DRIVE link + MIRRORs! :)

    This was captured on saturday (March, 21, 2020) a reprise of this day (May-18-2019).. :)
     
    Last edited: Mar 23, 2020
  4. MichelleBright

    MichelleBright Well-Known Member

    Joined:
    Jul 20, 2019
    Messages:
    1,220
    Likes Received:
    195
    Appreciate :victory:
     
    CELOBRAZiL likes this.
  5. Derel

    Derel Active Member

    Joined:
    Mar 25, 2016
    Messages:
    357
    Likes Received:
    76
    THANK YOOOUU :):love:
     
    CELOBRAZiL likes this.
  6. Jenkins

    Jenkins Well-Known Member

    Joined:
    May 30, 2019
    Messages:
    24,612
    Likes Received:
    640
    THANKS
     
    CELOBRAZiL likes this.
  7. da5vi

    da5vi Active Member

    Joined:
    May 12, 2019
    Messages:
    105
    Likes Received:
    82
    thanks!!!
     
    CELOBRAZiL likes this.
  8. Dyoggo

    Dyoggo Well-Known Member

    Joined:
    May 14, 2014
    Messages:
    1,013
    Likes Received:
    36
    THANKS
     
    CELOBRAZiL likes this.
  9. DannLopes

    DannLopes Member

    Joined:
    Dec 9, 2014
    Messages:
    165
    Likes Received:
    15
    thanks
     
    CELOBRAZiL likes this.
  10. DannLopes

    DannLopes Member

    Joined:
    Dec 9, 2014
    Messages:
    165
    Likes Received:
    15