HDTV Alok - Villa Mix Festival [01-Jul-2018] MULTISHOWHD 1080i HDTV DD5.1 H.264 CELOBRAZiL-HDMania

Discussion in 'HD Live Performances' started by CELOBRAZiL, Jul 11, 2018.

  1. CELOBRAZiL

    CELOBRAZiL Well-Known Member Capper V . I . P. Donor

    Joined:
    Oct 2, 2013
    Messages:
    5,539
    Likes Received:
    17,689
    Alok - Villa Mix Festival [01-Jul-2018] MULTISHOWHD 1080i HDTV DD5.1 H.264 CELOBRAZiL-HDMania

    [​IMG]



    Format : MPEG-TS
    File size : 7.23 GiB
    Duration : 1 h 18 min
    Overall bit rate mode : Variable
    Overall bit rate : 13.1 Mb/s

    Video
    ID : 1328 (0x530)
    Menu ID : 1336 (0x538)
    Format : AVC
    Format/Info : Advanced Video Codec
    Format profile : High@L4
    Format settings : CABAC / 4 Ref Frames
    Format settings, CABAC : Yes
    Format settings, RefFrames : 4 frames
    Codec ID : 27
    Duration : 1 h 18 min
    Bit rate : 12.1 Mb/s
    Width : 1 920 pixels
    Height : 1 080 pixels
    Display aspect ratio : 16:9
    Frame rate : 29.970 (30000/1001) FPS
    Color space : YUV
    Chroma subsampling : 4:2:0
    Bit depth : 8 bits
    Scan type : MBAFF
    Scan type, store method : Interleaved fields
    Scan order : Top Field First
    Bits/(Pixel*Frame) : 0.194
    Stream size : 6.66 GiB (92%)

    Audio
    ID : 1329 (0x531)
    Menu ID : 1336 (0x538)
    Format : AC-3
    Format/Info : Audio Coding 3
    Codec ID : 129
    Duration : 1 h 18 min
    Bit rate mode : Constant
    Bit rate : 384 kb/s
    Channel(s) : 6 channels
    Channel positions : Front: L C R, Side: L R, LFE
    Sampling rate : 48.0 kHz
    Frame rate : 31.250 FPS (1536 SPF)
    Bit depth : 16 bits
    Compression mode : Lossy
    Stream size : 217 MiB (3%)
    Language : English
    Service kind : Complete Main


    Link(s):
    Hidden Content:
    You must either reply or click 'Like' to see the hidden information contained here.
     
    Last edited: Sep 10, 2018
    Derel, leomtc, Anjolicious and 3 others like this.
  2. Loading...


  3. CELOBRAZiL

    CELOBRAZiL Well-Known Member Capper V . I . P. Donor

    Joined:
    Oct 2, 2013
    Messages:
    5,539
    Likes Received:
    17,689
  4. jonatas469

    jonatas469 Member

    Joined:
    Sep 28, 2015
    Messages:
    114
    Likes Received:
    16
    Thanks
     
    CELOBRAZiL likes this.
  5. Fabio Barbosa

    Fabio Barbosa Active Member

    Joined:
    Sep 28, 2015
    Messages:
    508
    Likes Received:
    218
    Thanks
     
    CELOBRAZiL likes this.
  6. leomtc

    leomtc Member

    Joined:
    Sep 30, 2016
    Messages:
    179
    Likes Received:
    23
    Thanks!!!!:cry:
     
    Last edited: Sep 6, 2018
  7. leomtc

    leomtc Member

    Joined:
    Sep 30, 2016
    Messages:
    179
    Likes Received:
    23
    Links Off :sob::sob::sob:
     
  8. CELOBRAZiL

    CELOBRAZiL Well-Known Member Capper V . I . P. Donor

    Joined:
    Oct 2, 2013
    Messages:
    5,539
    Likes Received:
    17,689
    @leomtc i re-uploaded to zippyshare server now! :)
     
    leomtc likes this.
  9. CELOBRAZiL

    CELOBRAZiL Well-Known Member Capper V . I . P. Donor

    Joined:
    Oct 2, 2013
    Messages:
    5,539
    Likes Received:
    17,689
    Added mega links! :)
     
    leomtc likes this.
  10. leomtc

    leomtc Member

    Joined:
    Sep 30, 2016
    Messages:
    179
    Likes Received:
    23
    THANKS!!!!!!!!!!!!!!!!!!!!!:cry::cry::cry::cry::cry:
     
    CELOBRAZiL likes this.