Alizée - Moi... Lolita (W9 [email protected])

Discussion in 'W9 HD' started by Dreamer, Nov 8, 2015.

  1. siralex

    siralex Member

    Joined:
    Jun 12, 2016
    Messages:
    235
    Likes Received:
    10
    thanks
     
  2. skyisup

    skyisup Member

    Joined:
    Jul 21, 2016
    Messages:
    135
    Likes Received:
    0
    Thanks
     
  3. BillyTaylor

    BillyTaylor Member

    Joined:
    Nov 27, 2016
    Messages:
    102
    Likes Received:
    2
    Thank you.
     
  4. voin

    voin Member

    Joined:
    Nov 1, 2015
    Messages:
    32
    Likes Received:
    0
    Thank you.
     
  5. badine82

    badine82 Member

    Joined:
    Oct 24, 2015
    Messages:
    252
    Likes Received:
    5
  6. Kensing

    Kensing Member

    Joined:
    Dec 27, 2013
    Messages:
    258
    Likes Received:
    0
    Thank you
     
  7. multimediafm

    multimediafm Well-Known Member Donor

    Joined:
    Mar 27, 2014
    Messages:
    8,865
    Likes Received:
    378
  8. luisjose24

    luisjose24 Active Member

    Joined:
    Aug 24, 2016
    Messages:
    270
    Likes Received:
    150
    thank you!!!!!!!
     
  9. orgulo

    orgulo Member

    Joined:
    Jan 16, 2017
    Messages:
    542
    Likes Received:
    19
    thanks
     
    Yuri likes this.
  10. kilmer

    kilmer Member

    Joined:
    Dec 31, 2016
    Messages:
    45
    Likes Received:
    0
    mmmmmm
     
  11. undaying

    undaying Member

    Joined:
    Dec 14, 2015
    Messages:
    61
    Likes Received:
    0
  12. art-v-k

    art-v-k Well-Known Member Capper

    Joined:
    Nov 1, 2013
    Messages:
    222
    Likes Received:
    9,485
    thanks
     
  13. Daydream

    Daydream Member

    Joined:
    Mar 1, 2015
    Messages:
    222
    Likes Received:
    6
    thank you
     
  14. D3mon86

    D3mon86 Member

    Joined:
    Dec 19, 2016
    Messages:
    454
    Likes Received:
    4
    thanks
     
  15. mileyfan

    mileyfan Member

    Joined:
    Mar 3, 2014
    Messages:
    59
    Likes Received:
    2
    thanks
     
  16. hanshermann

    hanshermann Well-Known Member

    Joined:
    Aug 24, 2016
    Messages:
    3,736
    Likes Received:
    27
    wahts taht
     
  17. brown69

    brown69 Member

    Joined:
    Apr 14, 2017
    Messages:
    32
    Likes Received:
    2
    Thanks!
    Alizée - Moi... Lolita (W9 HD)

    [​IMG]

    Format : MPEG-TS
    File size : 276 MiB
    Duration : 4mn 44s
    Overall bit rate mode : Variable
    Overall bit rate : 8 119 Kbps

    Video
    ID : 171 (0xAB)
    Menu ID : 9312 (0x2460)
    Format : AVC
    Format/Info : Advanced Video Codec
    Format profile : [email protected]
    Format settings, CABAC : Yes
    Format settings, ReFrames : 4 frames
    Format settings, GOP : M=4, N=24
    Codec ID : 27
    Duration : 4mn 44s
    Bit rate : 7 071 Kbps
    Width : 1 920 pixels
    Height : 1 080 pixels
    Display aspect ratio : 16:9
    Frame rate : 25.000 fps
    Color space : YUV
    Chroma subsampling : 4:2:0
    Bit depth : 8 bits
    Scan type : MBAFF
    Scan order : Top Field First
    Bits/(Pixel*Frame) : 0.136
    Stream size : 240 MiB (87%)
    Encryption : Seca Mediaguard 1/2
    Color range : Limited
    Color primaries : BT.709
    Transfer characteristics : BT.709
    Matrix coefficients : BT.709

    Audio #1
    ID : 125 (0x7D)
    Menu ID : 9312 (0x2460)
    Format : AC-3
    Format/Info : Audio Coding 3
    Mode extension : CM (complete main)
    Format settings, Endianness : Big
    Codec ID : 6
    Duration : 4mn 44s
    Bit rate mode : Constant
    Bit rate : 384 Kbps
    Channel(s) : 6 channels
    Channel positions : Front: L C R, Side: L R, LFE
    Sampling rate : 48.0 KHz
    Compression mode : Lossy
    Delay relative to video : 27ms
    Stream size : 13.0 MiB (5%)
    Language : French
    Encryption : Seca Mediaguard 1/2

    Audio #2
    ID : 126 (0x7E)
    Menu ID : 9312 (0x2460)
    Format : AC-3
    Format/Info : Audio Coding 3
    Format profile : Dolby Digital
    Mode extension : CM (complete main)
    Format settings, Endianness : Big
    Codec ID : 6
    Duration : 4mn 44s
    Bit rate mode : Constant
    Bit rate : 256 Kbps
    Channel(s) : 2 channels
    Channel positions : Front: L R
    Sampling rate : 48.0 KHz
    Compression mode : Lossy
    Delay relative to video : 23ms
    Stream size : 8.69 MiB (3%)
    Language : English
    Encryption : Seca Mediaguard 1/2

    Capped by @rt-vk
    ***Hidden content cannot be quoted.******Hidden content cannot be quoted.***
    [/QUOTE]
     
  18. bibi666

    bibi666 New Member

    Joined:
    Apr 2, 2017
    Messages:
    16
    Likes Received:
    0
    thanks
     
  19. noriscout

    noriscout Member

    Joined:
    Apr 26, 2017
    Messages:
    275
    Likes Received:
    37
    Thanks friendugan
     
  20. vihucasa

    vihucasa Member

    Joined:
    May 19, 2017
    Messages:
    33
    Likes Received:
    0
    graciasssssssssss