DVD Alisha's Attic - The Incidentals (Clean) [VOB]

Discussion in 'SD' started by claudio1301, Oct 24, 2020.

  1. claudio1301

    claudio1301 Well-Known Member V . I . P.

    Joined:
    Oct 2, 2018
    Messages:
    1,488
    Likes Received:
    3,340
    [​IMG]
    Code:
    General
    Complete name                  : Alisha's Attic - The Incidentals (Clean).vob
    Format                         : MPEG-PS
    File size                      : 216 MiB
    Duration                       : 3 min 12 s
    Overall bit rate mode          : Variable
    Overall bit rate               : 9 417 kb/s
    
    Video
    ID                             : 224 (0xE0)
    Format                         : MPEG Video
    Format version                 : Version 2
    Format profile                 : Main@Main
    Format settings                : CustomMatrix / BVOP
    Format settings, BVOP          : Yes
    Format settings, Matrix        : Custom
    Format settings, GOP           : Variable
    Duration                       : 3 min 12 s
    Bit rate mode                  : Variable
    Bit rate                       : 7 693 kb/s
    Maximum bit rate               : 8 000 kb/s
    Width                          : 720 pixels
    Height                         : 576 pixels
    Display aspect ratio           : 4:3
    Frame rate                     : 25.000 FPS
    Standard                       : PAL
    Color space                    : YUV
    Chroma subsampling             : 4:2:0
    Bit depth                      : 8 bits
    Scan type                      : Progressive
    Compression mode               : Lossy
    Bits/(Pixel*Frame)             : 0.742
    Time code of first frame       : 00:00:00:00
    Time code source               : Group of pictures header
    Stream size                    : 176 MiB (82%)
    Color primaries                : BT.601 PAL
    Transfer characteristics       : BT.470 System B/G
    Matrix coefficients            : BT.470 System B/G
    
    Audio
    ID                             : 189 (0xBD)-160 (0xA0)
    Format                         : PCM
    Format settings                : Big / Signed
    Muxing mode                    : DVD-Video
    Duration                       : 3 min 12 s
    Bit rate mode                  : Constant
    Bit rate                       : 1 536 kb/s
    Channel(s)                     : 2 channels
    Sampling rate                  : 48.0 kHz
    Bit depth                      : 16 bits
    Stream size                    : 35.2 MiB (16%)
    
    Menu
    Host: Mediafire
    Hidden Content:
    You must reply before you can see the hidden data contained here.