Alicia Keys - Muscle Shoals (2013) [1080p]

Discussion in 'Documentaries' started by Mr.Man, Nov 15, 2015.

  1. Mr.Man

    Mr.Man Active Member

    Joined:
    Jun 15, 2015
    Messages:
    196
    Likes Received:
    109
    Here's a video of Alicia Keys in the Muscle Shoals documentary. I edited all Alicia's parts in the documentary and joined them into one file. She was interviewed and sang Bob Dylan's "Pressing On". Enjoy!

    [​IMG]

    General
    Complete name : Alicia Keys - Interview + Pressing On (Muscle Shoals 2013) [1080p].mkv
    Format : Matroska
    Format version : Version 2
    File size : 237 MiB
    Duration : 3mn 43s
    Overall bit rate : 8 889 Kbps
    Writing application : Lavf54.63.104
    Writing library : Lavf54.63.104

    Video
    ID : 1
    Format : AVC
    Format/Info : Advanced Video Codec
    Format profile : [email protected]
    Format settings, CABAC : Yes
    Format settings, ReFrames : 4 frames
    Format settings, GOP : M=2, N=15
    Codec ID : V_MPEG4/ISO/AVC
    Duration : 3mn 43s
    Bit rate : 7 204 Kbps
    Width : 1 920 pixels
    Height : 1 080 pixels
    Display aspect ratio : 16:9
    Frame rate mode : Constant
    Frame rate : 23.976 fps
    Color space : YUV
    Chroma subsampling : 4:2:0
    Bit depth : 8 bits
    Scan type : Progressive
    Bits/(Pixel*Frame) : 0.145
    Stream size : 192 MiB (81%)
    Default : No
    Forced : No

    Audio
    ID : 2
    Format : DTS
    Format/Info : Digital Theater Systems
    Mode : 16
    Format settings, Endianness : Big
    Codec ID : A_DTS
    Duration : 3mn 43s
    Bit rate mode : Constant
    Bit rate : 1 509 Kbps
    Channel(s) : 6 channels
    Channel positions : Front: L C R, Side: L R, LFE
    Sampling rate : 48.0 KHz
    Bit depth : 24 bits
    Compression mode : Lossy
    Stream size : 40.3 MiB (17%)
    Language : English
    Default : Yes
    Forced : No

    Hidden Content:
    You must reply before you can see the hidden data contained here.
     
    angelm, alex and rhea like this.
  2. rhea

    rhea Well-Known Member

    Joined:
    Jan 6, 2014
    Messages:
    7,114
    Likes Received:
    788
    thanks a lot
     
  3. alex

    alex Well-Known Member

    Joined:
    Nov 21, 2013
    Messages:
    4,573
    Likes Received:
    369
    thank you
     
  4. peny20

    peny20 Well-Known Member

    Joined:
    Oct 23, 2013
    Messages:
    1,656
    Likes Received:
    43
    thank you
     
  5. proszek

    proszek Member

    Joined:
    Nov 10, 2015
    Messages:
    201
    Likes Received:
    24
    Thanks
     
  6. uminomiyako

    uminomiyako Well-Known Member

    Joined:
    May 28, 2016
    Messages:
    1,803
    Likes Received:
    69
  7. lim

    lim Well-Known Member

    Joined:
    Nov 8, 2013
    Messages:
    1,813
    Likes Received:
    36
    thank you
     
  8. yhnujm1

    yhnujm1 Member

    Joined:
    Jun 26, 2014
    Messages:
    359
    Likes Received:
    5
    thank you
     
  9. angelm

    angelm Member

    Joined:
    Aug 5, 2016
    Messages:
    169
    Likes Received:
    6
    thanks
     
  10. Antonio Barros

    Antonio Barros Well-Known Member

    Joined:
    Nov 14, 2013
    Messages:
    1,054
    Likes Received:
    103
    thanxxxxxxxxx
     
  11. mvlmoraes

    mvlmoraes Well-Known Member Donor

    Joined:
    Nov 22, 2013
    Messages:
    1,865
    Likes Received:
    287
  12. Stev007

    Stev007 Member

    Joined:
    May 2, 2014
    Messages:
    173
    Likes Received:
    7
    Thanks
     
  13. carlos69

    carlos69 Active Member

    Joined:
    Dec 17, 2013
    Messages:
    976
    Likes Received:
    85
    Thank youuu
     
  14. Rambo

    Rambo Member

    Joined:
    Jun 6, 2017
    Messages:
    67
    Likes Received:
    3
    Gracias ☺
     
  15. rico

    rico Member

    Joined:
    Nov 19, 2016
    Messages:
    241
    Likes Received:
    4
    thanx
     
  16. miyara

    miyara My reputation died in this forum V . I . P. Uploader

    Joined:
    Feb 21, 2016
    Messages:
    1,034
    Likes Received:
    3,006
    Thanks.