Alicia Keys, Gwen Stefani & Missy Elliott - Kiss Brit Awards 2004

Discussion in 'SD Live Performances' started by jeaneyne, Oct 20, 2016.

  1. Fabitos ND

    Fabitos ND Member

    Joined:
    Dec 20, 2014
    Messages:
    135
    Likes Received:
    9
    thanks so much!!!
     
  2. Tiago

    Tiago Well-Known Member

    Joined:
    Dec 7, 2013
    Messages:
    2,273
    Likes Received:
    81
    thank you
     
  3. tapions

    tapions Well-Known Member

    Joined:
    Aug 30, 2016
    Messages:
    1,022
    Likes Received:
    90
    gracias
     
  4. bahare7373

    bahare7373 Well-Known Member

    Joined:
    May 21, 2015
    Messages:
    1,190
    Likes Received:
    54
  5. Rambo

    Rambo Member

    Joined:
    Jun 6, 2017
    Messages:
    76
    Likes Received:
    3
    Rare video gracias
     
  6. hanshermann

    hanshermann Well-Known Member Uploader

    Joined:
    Aug 24, 2016
    Messages:
    6,951
    Likes Received:
    11,166
    wahts taht
     
  7. nico1234

    nico1234 Member

    Joined:
    Jun 16, 2017
    Messages:
    50
    Likes Received:
    0
    thanks
     
  8. revilo18

    revilo18 Well-Known Member

    Joined:
    May 26, 2016
    Messages:
    2,245
    Likes Received:
    111
    THSANKK
     
  9. mohamad

    mohamad Active Member

    Joined:
    Aug 15, 2016
    Messages:
    201
    Likes Received:
    25
    Alicia Keys, Gwen Stefani & Missy Elliott - Kiss Brit Awards 2004
     
  10. miguelmr87

    miguelmr87 Well-Known Member

    Joined:
    Dec 20, 2013
    Messages:
    1,300
    Likes Received:
    291
    is it hQ?
     
  11. piculya

    piculya Member

    Joined:
    Apr 10, 2014
    Messages:
    537
    Likes Received:
    12
    Thanks
     
  12. hugonicolas

    hugonicolas Active Member

    Joined:
    Aug 25, 2017
    Messages:
    851
    Likes Received:
    36
  13. luismolinanyc

    luismolinanyc Active Member

    Joined:
    May 17, 2016
    Messages:
    954
    Likes Received:
    35
  14. aaliyah2009

    aaliyah2009 Well-Known Member

    Joined:
    Feb 2, 2017
    Messages:
    1,215
    Likes Received:
    31
  15. Clepsodra

    Clepsodra Active Member

    Joined:
    Jan 15, 2017
    Messages:
    838
    Likes Received:
    155
    [​IMG]

    Alicia Keys, Gwen Stefani & Missy Elliott - Kiss.mpg
    Format : MPEG-PS
    File size : 214 MiB
    Duration : 3mn 28s
    Overall bit rate mode : Variable
    Overall bit rate : 8 611 Kbps
    Video #224
    ID : 224 (0xE0)
    Format : MPEG Video
    Format version : Version 2
    Format profile : Main@Main
    Format settings, BVOP : Yes
    Format settings, Matrix : Default
    Format settings, GOP : M=3, N=12
    Duration : 3mn 28s
    Bit rate mode : Variable
    Bit rate : 6 903 Kbps
    Maximum bit rate : 8 000 Kbps
    Width : 720 pixels
    Height : 576 pixels
    Display aspect ratio : 4:3
    Frame rate : 25.000 fps
    Standard : PAL
    Color space : YUV
    Chroma subsampling : 4:2:0
    Bit depth : 8 bits
    Scan type : Interlaced
    Scan order : Bottom Field First
    Compression mode : Lossy
    Bits/(Pixel*Frame) : 0.666
    Stream size : 172 MiB (80%)
    Audio #189-160
    ID : 189 (0xBD)-160 (0xA0)
    Format : PCM
    Format settings, Endianness : Big
    Format settings, Sign : Signed
    Muxing mode : DVD-Video
    Duration : 3mn 28s
    Bit rate mode : Constant
    Bit rate : 1 536 Kbps
    Channel(s) : 2 channels
    Channel positions : Front: L R
    Sampling rate : 48.0 KHz
    Bit depth : 16 bits
    Stream size : 38.2 MiB (18%)


    Hidden Content:
    You must reply before you can see the hidden data contained here.