Alicia Keys, Gwen Stefani & Missy Elliott - Kiss Brit Awards 2004

Discussion in 'SD Live Performances' started by jeaneyne, Oct 20, 2016.

  1. jeaneyne

    jeaneyne Well-Known Member

    Joined:
    Oct 21, 2013
    Messages:
    1,402
    Likes Received:
    560
    [​IMG]

    Alicia Keys, Gwen Stefani & Missy Elliott - Kiss.mpg
    Format : MPEG-PS
    File size : 214 MiB
    Duration : 3mn 28s
    Overall bit rate mode : Variable
    Overall bit rate : 8 611 Kbps
    Video #224
    ID : 224 (0xE0)
    Format : MPEG Video
    Format version : Version 2
    Format profile : Main@Main
    Format settings, BVOP : Yes
    Format settings, Matrix : Default
    Format settings, GOP : M=3, N=12
    Duration : 3mn 28s
    Bit rate mode : Variable
    Bit rate : 6 903 Kbps
    Maximum bit rate : 8 000 Kbps
    Width : 720 pixels
    Height : 576 pixels
    Display aspect ratio : 4:3
    Frame rate : 25.000 fps
    Standard : PAL
    Color space : YUV
    Chroma subsampling : 4:2:0
    Bit depth : 8 bits
    Scan type : Interlaced
    Scan order : Bottom Field First
    Compression mode : Lossy
    Bits/(Pixel*Frame) : 0.666
    Stream size : 172 MiB (80%)
    Audio #189-160
    ID : 189 (0xBD)-160 (0xA0)
    Format : PCM
    Format settings, Endianness : Big
    Format settings, Sign : Signed
    Muxing mode : DVD-Video
    Duration : 3mn 28s
    Bit rate mode : Constant
    Bit rate : 1 536 Kbps
    Channel(s) : 2 channels
    Channel positions : Front: L R
    Sampling rate : 48.0 KHz
    Bit depth : 16 bits
    Stream size : 38.2 MiB (18%)

    Hidden Content:
    You must reply before you can see the hidden data contained here.
     
    Last edited: Oct 23, 2016
  2. Loading...


  3. BetaKsi

    BetaKsi Well-Known Member

    Joined:
    Oct 18, 2015
    Messages:
    2,269
    Likes Received:
    593
    Thank you))
     
  4. Snorom6

    Snorom6 Well-Known Member V . I . P. Uploader

    Joined:
    Dec 17, 2015
    Messages:
    4,246
    Likes Received:
    6,289
  5. lim

    lim Well-Known Member

    Joined:
    Nov 8, 2013
    Messages:
    2,191
    Likes Received:
    79
    thank you
     
  6. DonWal

    DonWal Well-Known Member Capper V . I . P.

    Joined:
    May 11, 2015
    Messages:
    1,214
    Likes Received:
    3,141
    Thanks!
     
  7. uminomiyako

    uminomiyako Well-Known Member

    Joined:
    May 28, 2016
    Messages:
    2,987
    Likes Received:
    105
  8. Maura

    Maura Well-Known Member

    Joined:
    Apr 7, 2014
    Messages:
    3,273
    Likes Received:
    107
    Thanks
     
  9. Maura

    Maura Well-Known Member

    Joined:
    Apr 7, 2014
    Messages:
    3,273
    Likes Received:
    107
    Thanks
     
  10. multimediafm

    multimediafm Well-Known Member Donor

    Joined:
    Mar 27, 2014
    Messages:
    13,568
    Likes Received:
    1,063
  11. Crk11

    Crk11 Member

    Joined:
    Nov 4, 2016
    Messages:
    108
    Likes Received:
    1
    thanks :p
     
  12. sideshow_bob

    sideshow_bob Well-Known Member

    Joined:
    Dec 20, 2013
    Messages:
    3,278
    Likes Received:
    240
  13. kismakk

    kismakk Member

    Joined:
    Jul 2, 2014
    Messages:
    536
    Likes Received:
    11
    thanks
     
  14. mcslimshady

    mcslimshady Well-Known Member

    Joined:
    Jun 20, 2016
    Messages:
    2,127
    Likes Received:
    55
    thanks man
     
  15. Amauri Luiz

    Amauri Luiz Well-Known Member

    Joined:
    Jan 14, 2014
    Messages:
    2,039
    Likes Received:
    84
    Thank you!!
     
  16. John

    John Member

    Joined:
    Oct 30, 2013
    Messages:
    501
    Likes Received:
    5
    thanks
     
  17. D3mon86

    D3mon86 Member

    Joined:
    Dec 19, 2016
    Messages:
    994
    Likes Received:
    19
    thanks
     
  18. Tommyboy

    Tommyboy Active Member

    Joined:
    Oct 23, 2016
    Messages:
    998
    Likes Received:
    36
  19. nicole21290

    nicole21290 Member

    Joined:
    Jan 25, 2017
    Messages:
    122
    Likes Received:
    0
  20. carlos69

    carlos69 Well-Known Member

    Joined:
    Dec 17, 2013
    Messages:
    1,309
    Likes Received:
    98
    Thank you
     
  21. jison

    jison Active Member

    Joined:
    Oct 14, 2015
    Messages:
    775
    Likes Received:
    33
    thanx