SDTV Alicia Keys Fallin' World Music Awards 2002

Discussion in 'SD Live Performances' started by jeaneyne, Oct 15, 2016.

  1. Clepsodra

    Clepsodra Active Member

    Joined:
    Jan 15, 2017
    Messages:
    356
    Likes Received:
    35
    [​IMG]

    Format : MPEG-PS
    File size : 234 MiB
    Duration : 3mn 29s
    Overall bit rate : 9 361 Kbps
    Video #224
    ID : 224 (0xE0)
    Format : MPEG Video
    Format version : Version 2
    Format profile : Main@Main
    Format settings, BVOP : Yes
    Format settings, Matrix : Custom
    Format settings, GOP : M=3, N=15
    Duration : 3mn 29s
    Bit rate mode : Variable
    Bit rate : 8 950 Kbps
    Width : 720 pixels
    Height : 576 pixels
    Display aspect ratio : 4:3
    Frame rate : 25.000 fps
    Standard : PAL
    Color space : YUV
    Chroma subsampling : 4:2:0
    Bit depth : 8 bits
    Scan type : Interlaced
    Scan order : Top Field First
    Compression mode : Lossy
    Bits/(Pixel*Frame) : 0.863
    Stream size : 223 MiB (95%)
    Audio #192
    ID : 192 (0xC0)
    Format : MPEG Audio
    Format version : Version 1
    Format profile : Layer 2
    Duration : 3mn 29s
    Bit rate mode : Constant
    Bit rate : 256 Kbps
    Channel(s) : 2 channels
    Sampling rate : 48.0 KHz
    Compression mode : Lossy
    Delay relative to video : -108ms
    Stream size : 6.41 MiB (3%)


    Hidden Content:
    You must reply before you can see the hidden data contained here.
     
  2. mohamad

    mohamad Active Member

    Joined:
    Aug 15, 2016
    Messages:
    191
    Likes Received:
    25
    Alicia Keys Fallin' World Music Awards 2002