SDTV Alicia Keys Fallin' World Music Awards 2002

Discussion in 'SD Live Performances' started by jeaneyne, Oct 15, 2016.

  1. jeaneyne

    jeaneyne Well-Known Member

    Joined:
    Oct 21, 2013
    Messages:
    1,152
    Likes Received:
    541
    [​IMG]

    Format : MPEG-PS
    File size : 234 MiB
    Duration : 3mn 29s
    Overall bit rate : 9 361 Kbps
    Video #224
    ID : 224 (0xE0)
    Format : MPEG Video
    Format version : Version 2
    Format profile : Main@Main
    Format settings, BVOP : Yes
    Format settings, Matrix : Custom
    Format settings, GOP : M=3, N=15
    Duration : 3mn 29s
    Bit rate mode : Variable
    Bit rate : 8 950 Kbps
    Width : 720 pixels
    Height : 576 pixels
    Display aspect ratio : 4:3
    Frame rate : 25.000 fps
    Standard : PAL
    Color space : YUV
    Chroma subsampling : 4:2:0
    Bit depth : 8 bits
    Scan type : Interlaced
    Scan order : Top Field First
    Compression mode : Lossy
    Bits/(Pixel*Frame) : 0.863
    Stream size : 223 MiB (95%)
    Audio #192
    ID : 192 (0xC0)
    Format : MPEG Audio
    Format version : Version 1
    Format profile : Layer 2
    Duration : 3mn 29s
    Bit rate mode : Constant
    Bit rate : 256 Kbps
    Channel(s) : 2 channels
    Sampling rate : 48.0 KHz
    Compression mode : Lossy
    Delay relative to video : -108ms
    Stream size : 6.41 MiB (3%)


    Hidden Content:
    You must reply before you can see the hidden data contained here.
     
  2. Loading...


  3. Snorom6

    Snorom6 Well-Known Member V . I . P. Uploader

    Joined:
    Dec 17, 2015
    Messages:
    4,248
    Likes Received:
    5,850
  4. Maura

    Maura Well-Known Member

    Joined:
    Apr 7, 2014
    Messages:
    3,056
    Likes Received:
    96
    thanks
     
  5. lim

    lim Well-Known Member

    Joined:
    Nov 8, 2013
    Messages:
    2,030
    Likes Received:
    76
    thank you
     
  6. BetaKsi

    BetaKsi Well-Known Member

    Joined:
    Oct 18, 2015
    Messages:
    1,926
    Likes Received:
    537
    Thank you))
     
  7. killers23

    killers23 Active Member

    Joined:
    Feb 27, 2015
    Messages:
    853
    Likes Received:
    96
  8. uminomiyako

    uminomiyako Well-Known Member

    Joined:
    May 28, 2016
    Messages:
    2,411
    Likes Received:
    93
  9. peny20

    peny20 Well-Known Member

    Joined:
    Oct 23, 2013
    Messages:
    1,848
    Likes Received:
    53
    thanks
     
  10. multimediafm

    multimediafm Well-Known Member Donor

    Joined:
    Mar 27, 2014
    Messages:
    12,878
    Likes Received:
    1,013
  11. DonWal

    DonWal Well-Known Member Capper V . I . P.

    Joined:
    May 11, 2015
    Messages:
    1,133
    Likes Received:
    2,615
    Thank You
     
  12. Antonio Barros

    Antonio Barros Well-Known Member

    Joined:
    Nov 14, 2013
    Messages:
    1,203
    Likes Received:
    168
    thanxxxxxxx
     
  13. gotiko19

    gotiko19 Member

    Joined:
    Oct 27, 2013
    Messages:
    236
    Likes Received:
    16
  14. John

    John Member

    Joined:
    Oct 30, 2013
    Messages:
    501
    Likes Received:
    5
    thanks
     
  15. theclimb

    theclimb Well-Known Member

    Joined:
    Dec 16, 2014
    Messages:
    1,161
    Likes Received:
    180
    Thanks
     
  16. carlos69

    carlos69 Well-Known Member

    Joined:
    Dec 17, 2013
    Messages:
    1,251
    Likes Received:
    92
    Thnxxxx
     
  17. XtrunksX

    XtrunksX Member

    Joined:
    Jul 25, 2016
    Messages:
    208
    Likes Received:
    4
    Thank You
     
  18. Amauri Luiz

    Amauri Luiz Well-Known Member

    Joined:
    Jan 14, 2014
    Messages:
    1,810
    Likes Received:
    72
  19. cb30uk

    cb30uk Member

    Joined:
    Apr 24, 2015
    Messages:
    270
    Likes Received:
    1
    thanks
     
  20. miguelmr87

    miguelmr87 Well-Known Member

    Joined:
    Dec 20, 2013
    Messages:
    1,216
    Likes Received:
    281
  21. aaliyah2009

    aaliyah2009 Well-Known Member

    Joined:
    Feb 2, 2017
    Messages:
    1,159
    Likes Received:
    30