SDTV Alicia Keys Fallin' World Music Awards 2002

Discussion in 'SD Live Performances' started by jeaneyne, Oct 15, 2016.

  1. jeaneyne

    jeaneyne Well-Known Member

    Joined:
    Oct 21, 2013
    Messages:
    972
    Likes Received:
    527
    [​IMG]

    Format : MPEG-PS
    File size : 234 MiB
    Duration : 3mn 29s
    Overall bit rate : 9 361 Kbps
    Video #224
    ID : 224 (0xE0)
    Format : MPEG Video
    Format version : Version 2
    Format profile : Main@Main
    Format settings, BVOP : Yes
    Format settings, Matrix : Custom
    Format settings, GOP : M=3, N=15
    Duration : 3mn 29s
    Bit rate mode : Variable
    Bit rate : 8 950 Kbps
    Width : 720 pixels
    Height : 576 pixels
    Display aspect ratio : 4:3
    Frame rate : 25.000 fps
    Standard : PAL
    Color space : YUV
    Chroma subsampling : 4:2:0
    Bit depth : 8 bits
    Scan type : Interlaced
    Scan order : Top Field First
    Compression mode : Lossy
    Bits/(Pixel*Frame) : 0.863
    Stream size : 223 MiB (95%)
    Audio #192
    ID : 192 (0xC0)
    Format : MPEG Audio
    Format version : Version 1
    Format profile : Layer 2
    Duration : 3mn 29s
    Bit rate mode : Constant
    Bit rate : 256 Kbps
    Channel(s) : 2 channels
    Sampling rate : 48.0 KHz
    Compression mode : Lossy
    Delay relative to video : -108ms
    Stream size : 6.41 MiB (3%)


    Hidden Content:
    You must reply before you can see the hidden data contained here.
     
    theclimb and gotiko19 like this.
  2. Loading...


  3. Snorom6

    Snorom6 Well-Known Member V . I . P. Uploader

    Joined:
    Dec 17, 2015
    Messages:
    4,248
    Likes Received:
    5,623
  4. Maura

    Maura Well-Known Member

    Joined:
    Apr 7, 2014
    Messages:
    2,922
    Likes Received:
    89
    thanks
     
  5. lim

    lim Well-Known Member

    Joined:
    Nov 8, 2013
    Messages:
    1,960
    Likes Received:
    55
    thank you
     
  6. BetaKsi

    BetaKsi Well-Known Member

    Joined:
    Oct 18, 2015
    Messages:
    1,692
    Likes Received:
    493
    Thank you))
     
  7. killers23

    killers23 Active Member

    Joined:
    Feb 27, 2015
    Messages:
    781
    Likes Received:
    94
  8. uminomiyako

    uminomiyako Well-Known Member

    Joined:
    May 28, 2016
    Messages:
    2,122
    Likes Received:
    85
  9. peny20

    peny20 Well-Known Member

    Joined:
    Oct 23, 2013
    Messages:
    1,766
    Likes Received:
    51
    thanks
     
  10. multimediafm

    multimediafm Well-Known Member Donor

    Joined:
    Mar 27, 2014
    Messages:
    11,951
    Likes Received:
    788
  11. DonWal

    DonWal Well-Known Member Capper V . I . P.

    Joined:
    May 11, 2015
    Messages:
    1,086
    Likes Received:
    2,304
    Thank You
     
  12. Antonio Barros

    Antonio Barros Well-Known Member

    Joined:
    Nov 14, 2013
    Messages:
    1,126
    Likes Received:
    142
    thanxxxxxxx
     
  13. gotiko19

    gotiko19 Member

    Joined:
    Oct 27, 2013
    Messages:
    236
    Likes Received:
    16
  14. John

    John Member

    Joined:
    Oct 30, 2013
    Messages:
    501
    Likes Received:
    5
    thanks
     
  15. theclimb

    theclimb Well-Known Member

    Joined:
    Dec 16, 2014
    Messages:
    1,020
    Likes Received:
    161
    Thanks
     
  16. carlos69

    carlos69 Well-Known Member

    Joined:
    Dec 17, 2013
    Messages:
    1,223
    Likes Received:
    90
    Thnxxxx
     
  17. XtrunksX

    XtrunksX Member

    Joined:
    Jul 25, 2016
    Messages:
    194
    Likes Received:
    4
    Thank You
     
  18. Amauri Luiz

    Amauri Luiz Well-Known Member

    Joined:
    Jan 14, 2014
    Messages:
    1,708
    Likes Received:
    63
  19. cb30uk

    cb30uk Member

    Joined:
    Apr 24, 2015
    Messages:
    264
    Likes Received:
    1
    thanks
     
  20. miguelmr87

    miguelmr87 Well-Known Member

    Joined:
    Dec 20, 2013
    Messages:
    1,159
    Likes Received:
    268
  21. aaliyah2009

    aaliyah2009 Member

    Joined:
    Feb 2, 2017
    Messages:
    885
    Likes Received:
    16