Alexandra Stan - Mr. Saxobeat (BridgeHD-1080i-MP2-Olgold)-HDMania

Discussion in 'Bridge HD' started by Olgold, Oct 10, 2016.

  1. Olgold

    Olgold Well-Known Member Capper

    Joined:
    Aug 19, 2015
    Messages:
    436
    Likes Received:
    1,651
    Alexandra Stan - Mr. Saxobeat
    [​IMG]
    General
    Format : MPEG-TS
    File size : 169 MiB
    Duration : 3 min 11 s
    Overall bit rate mode : Variable
    Overall bit rate : 7 356 kb/s

    Video
    Format : AVC
    Format/Info : Advanced Video Codec
    Format profile : [email protected]
    Format settings, CABAC : Yes
    Format settings, ReFrames : 4 frames
    Duration : 3 min 10 s
    Bit rate : 6 799 kb/s
    Width : 1 920 pixels
    Height : 1 080 pixels
    Display aspect ratio : 16:9
    Frame rate : 25.000 FPS
    Standard : Component
    Color space : YUV
    Chroma subsampling : 4:2:0
    Bit depth : 8 bits
    Scan type : Interlaced
    Scan type, store method : Separated fields
    Scan order : Top Field First
    Bits/(Pixel*Frame) : 0.131
    Stream size : 155 MiB (92%)
    Color range : Limited

    Audio
    Format : MPEG Audio
    Format version : Version 1
    Format profile : Layer 2
    Duration : 3 min 11 s
    Bit rate mode : Constant
    Bit rate : 192 kb/s
    Channel(s) : 2 channels
    Sampling rate : 48.0 kHz
    Compression mode : Lossy
    Delay relative to video : 83 ms
    Stream size : 4.39 MiB (3%)
    Password: Olgold
    Hidden Content:
    You must reply before you can see the hidden data contained here.
     
  2. rhea

    rhea Well-Known Member

    Joined:
    Jan 6, 2014
    Messages:
    6,213
    Likes Received:
    516
    thank you so much :)
     
  3. Dreamer

    Dreamer Lana Del Rey ♥ Capper V . I . P. Uploader

    Joined:
    Dec 4, 2014
    Messages:
    2,686
    Likes Received:
    3,365
    Thanks
     
  4. CELOBRAZiL

    CELOBRAZiL Well-Known Member Capper V . I . P. Donor

    Joined:
    Oct 2, 2013
    Messages:
    3,112
    Likes Received:
    8,973
    Thank you so much! :)
     
  5. Hyrus

    Hyrus Arianator / Selenator / Victorian / Saxobeat / LBS Donor

    Joined:
    Feb 9, 2015
    Messages:
    1,206
    Likes Received:
    834
    Thanks so much for the sexy Alexandra!! :love::happy:
     
  6. goku20

    goku20 New Member

    Joined:
    Dec 28, 2016
    Messages:
    17
    Likes Received:
    0
    thanks
     
  7. kilmer

    kilmer Member

    Joined:
    Dec 31, 2016
    Messages:
    44
    Likes Received:
    0
    Thanks
     
  8. shing000

    shing000 Member

    Joined:
    Mar 13, 2016
    Messages:
    823
    Likes Received:
    21
    thanks
     
  9. cero

    cero Member

    Joined:
    Nov 1, 2013
    Messages:
    123
    Likes Received:
    1
    dance song thank you
     
  10. cero

    cero Member

    Joined:
    Nov 1, 2013
    Messages:
    123
    Likes Received:
    1
    thank u
     
  11. furkan

    furkan Member

    Joined:
    Oct 9, 2015
    Messages:
    245
    Likes Received:
    7
    thnksssssssssssss
     
  12. skyisup

    skyisup Member

    Joined:
    Jul 21, 2016
    Messages:
    161
    Likes Received:
    0
    Thanks
     
  13. seregil

    seregil Member

    Joined:
    Sep 5, 2014
    Messages:
    103
    Likes Received:
    1
    thanks
     
  14. rvden

    rvden Active Member

    Joined:
    Apr 9, 2017
    Messages:
    313
    Likes Received:
    149
    thanks
     
  15. DiVenturas

    DiVenturas Well-Known Member

    Joined:
    Oct 21, 2015
    Messages:
    2,535
    Likes Received:
    87
  16. revilo18

    revilo18 Well-Known Member

    Joined:
    May 26, 2016
    Messages:
    1,660
    Likes Received:
    75
    thankkk
     
  17. noriscout

    noriscout Active Member

    Joined:
    Apr 26, 2017
    Messages:
    290
    Likes Received:
    52
    Thanks, friend
     
  18. manas

    manas Member

    Joined:
    Aug 2, 2016
    Messages:
    269
    Likes Received:
    7
    aaaaaaaa
     
  19. alcon

    alcon Member

    Joined:
    May 30, 2017
    Messages:
    30
    Likes Received:
    0
    gracias
     
  20. 010juninho

    010juninho Member

    Joined:
    Jan 16, 2016
    Messages:
    437
    Likes Received:
    7