Alexandra Stan - Mr. Saxobeat (BridgeHD-1080i-MP2-Olgold)-HDMania

Discussion in 'Bridge HD' started by Olgold, Oct 10, 2016.

  1. Olgold

    Olgold Well-Known Member Capper

    Joined:
    Aug 19, 2015
    Messages:
    386
    Likes Received:
    1,332
    Alexandra Stan - Mr. Saxobeat
    [​IMG]
    General
    Format : MPEG-TS
    File size : 169 MiB
    Duration : 3 min 11 s
    Overall bit rate mode : Variable
    Overall bit rate : 7 356 kb/s

    Video
    Format : AVC
    Format/Info : Advanced Video Codec
    Format profile : High@L4
    Format settings, CABAC : Yes
    Format settings, ReFrames : 4 frames
    Duration : 3 min 10 s
    Bit rate : 6 799 kb/s
    Width : 1 920 pixels
    Height : 1 080 pixels
    Display aspect ratio : 16:9
    Frame rate : 25.000 FPS
    Standard : Component
    Color space : YUV
    Chroma subsampling : 4:2:0
    Bit depth : 8 bits
    Scan type : Interlaced
    Scan type, store method : Separated fields
    Scan order : Top Field First
    Bits/(Pixel*Frame) : 0.131
    Stream size : 155 MiB (92%)
    Color range : Limited

    Audio
    Format : MPEG Audio
    Format version : Version 1
    Format profile : Layer 2
    Duration : 3 min 11 s
    Bit rate mode : Constant
    Bit rate : 192 kb/s
    Channel(s) : 2 channels
    Sampling rate : 48.0 kHz
    Compression mode : Lossy
    Delay relative to video : 83 ms
    Stream size : 4.39 MiB (3%)
    Password: Olgold
    Hidden Content:
    You must reply before you can see the hidden data contained here.
     
    CELOBRAZiL and rhea like this.
  2. rhea

    rhea Well-Known Member

    Joined:
    Jan 6, 2014
    Messages:
    5,406
    Likes Received:
    265
    thank you so much :)
     
  3. Dreamer

    Dreamer Well-Known Member Capper Uploader

    Joined:
    Dec 4, 2014
    Messages:
    2,293
    Likes Received:
    2,138
    Thanks
     
  4. CELOBRAZiL

    CELOBRAZiL Well-Known Member Capper V . I . P. Donor

    Joined:
    Oct 2, 2013
    Messages:
    1,870
    Likes Received:
    5,241
    Thank you so much! :)
     
  5. Hyrus

    Hyrus Arianator / Selenator / Victorian / LBS* Donor

    Joined:
    Feb 9, 2015
    Messages:
    1,109
    Likes Received:
    643
    Thanks so much for the sexy Alexandra!! :love::happy:
     
  6. goku20

    goku20 New Member

    Joined:
    Dec 28, 2016
    Messages:
    17
    Likes Received:
    0
    thanks
     
  7. kilmer

    kilmer Member

    Joined:
    Dec 31, 2016
    Messages:
    42
    Likes Received:
    0
    Thanks
     
  8. shing000

    shing000 Member

    Joined:
    Mar 13, 2016
    Messages:
    580
    Likes Received:
    13
    thanks
     
  9. cero

    cero Member

    Joined:
    Nov 1, 2013
    Messages:
    91
    Likes Received:
    0
    dance song thank you
     
  10. cero

    cero Member

    Joined:
    Nov 1, 2013
    Messages:
    91
    Likes Received:
    0
    thank u
     
  11. furkan

    furkan Member

    Joined:
    Oct 9, 2015
    Messages:
    211
    Likes Received:
    3
    thnksssssssssssss
     
  12. skyisup

    skyisup Member

    Joined:
    Jul 21, 2016
    Messages:
    112
    Likes Received:
    0
    Thanks
     
  13. seregil

    seregil Member

    Joined:
    Sep 5, 2014
    Messages:
    103
    Likes Received:
    0
    thanks