Alexandra Stan - Get Back (ASAP) (Maan Studio Remix) - Music Video (1080p)

Discussion in 'Music Videos' started by Hyrus, Mar 8, 2017.

  1. Hyrus

    Hyrus Arianator / Selenator / Victorian / Saxobeat / LBS Donor

    Joined:
    Feb 9, 2015
    Messages:
    1,430
    Likes Received:
    1,341
    [​IMG]
    [​IMG]
    [​IMG]
    [​IMG]
    [​IMG]

    Thumbnails:
    [​IMG]
    Video
    ID : 0
    Format : xvid
    Codec ID : xvid
    Duration : 3 min 22 s
    Bit rate : 6 359 kb/s
    Width : 1 920 pixels
    Height : 1 080 pixels
    Display aspect ratio : 16:9
    Frame rate : 25.000 FPS
    Bits/(Pixel*Frame) : 0.123
    Stream size : 153 MiB (95%)

    Audio
    ID : 1
    Format : MPEG Audio
    Format version : Version 1
    Format profile : Layer 3
    Mode : Joint stereo
    Codec ID : 55
    Codec ID/Hint : MP3
    Duration : 3 min 21 s
    Bit rate mode : Constant
    Bit rate : 320 kb/s
    Channel(s) : 2 channels
    Sampling rate : 48.0 kHz
    Compression mode : Lossy
    Stream size : 7.71 MiB (5%)
    Alignment : Aligned on interleaves
    Interleave, duration : 24 ms (0.60 video frame)
    Writing library : LAME3.98 (alpha)

    Download Link:
    Hidden Content:
    You must reply before you can see the hidden data contained here.
     
  2. Loading...


  3. nolynexor88

    nolynexor88 Well-Known Member

    Joined:
    Sep 29, 2015
    Messages:
    1,436
    Likes Received:
    97
    thank you
     
  4. fisherTW

    fisherTW Well-Known Member

    Joined:
    Dec 3, 2014
    Messages:
    1,766
    Likes Received:
    186
    Thank you.:)
     
  5. ImLoser

    ImLoser Well-Known Member

    Joined:
    May 12, 2016
    Messages:
    2,035
    Likes Received:
    90
    thanks
     
  6. benja

    benja Well-Known Member

    Joined:
    Jan 8, 2014
    Messages:
    1,500
    Likes Received:
    100
    Thank you
     
  7. rhea

    rhea Well-Known Member

    Joined:
    Jan 6, 2014
    Messages:
    7,842
    Likes Received:
    999
    thanks
     
  8. alan2014

    alan2014 Member

    Joined:
    Mar 24, 2014
    Messages:
    255
    Likes Received:
    7
    youtube?
     
  9. multimediafm

    multimediafm Well-Known Member Donor

    Joined:
    Mar 27, 2014
    Messages:
    12,861
    Likes Received:
    1,012
  10. Cesar

    Cesar Member

    Joined:
    Nov 11, 2013
    Messages:
    456
    Likes Received:
    16
    Thanks
     
  11. muratguren

    muratguren Well-Known Member

    Joined:
    Mar 6, 2016
    Messages:
    1,338
    Likes Received:
    26
    thank you
     
  12. Bookerstp

    Bookerstp Member

    Joined:
    Feb 25, 2016
    Messages:
    238
    Likes Received:
    6
  13. skyisup

    skyisup Member

    Joined:
    Jul 21, 2016
    Messages:
    279
    Likes Received:
    19
    Thanks
     
  14. franklele

    franklele Well-Known Member

    Joined:
    Nov 11, 2013
    Messages:
    2,389
    Likes Received:
    148
    thank you very much
     
  15. BsMx

    BsMx Member

    Joined:
    Oct 5, 2014
    Messages:
    208
    Likes Received:
    3
    thsnkx
     
  16. andy80

    andy80 Member

    Joined:
    Sep 25, 2016
    Messages:
    93
    Likes Received:
    10
    thanks bro
     
  17. hankdt001

    hankdt001 Member

    Joined:
    Jan 21, 2016
    Messages:
    106
    Likes Received:
    3
  18. zuluka

    zuluka Well-Known Member

    Joined:
    Jul 9, 2016
    Messages:
    1,018
    Likes Received:
    31
    thanks
     
  19. 12fer12

    12fer12 Member

    Joined:
    Sep 4, 2016
    Messages:
    34
    Likes Received:
    0
    thanks
     
  20. Vinny

    Vinny Well-Known Member

    Joined:
    Dec 26, 2013
    Messages:
    3,876
    Likes Received:
    50
    Thank U!
     
  21. Zeeh

    Zeeh Rallyforrivers.org

    Joined:
    Mar 20, 2015
    Messages:
    754
    Likes Received:
    30
    thanks