Alexandra Burke (feat. Flo-Rida) - Bad Boys (MTVNHD-1080i-DD2.0)

Discussion in 'MTVNHD' started by DETOX, Jan 21, 2016.

  1. DETOX

    DETOX Well-Known Member V . I . P. Uploader

    Joined:
    Feb 20, 2014
    Messages:
    2,843
    Likes Received:
    16,733
    [​IMG]
    Code:
    General
    ID                                       : 8900 (0x22C4)
    Complete name                            : Alexandra Burke (feat. Flo-Rida) - Bad Boys (MTVNHD-1080i-DD2.0).ts
    Format                                   : MPEG-TS
    File size                                : 239 MiB
    Duration                                 : 3mn 59s
    Overall bit rate mode                    : Variable
    Overall bit rate                         : 8 382 Kbps
    
    Video
    ID                                       : 326 (0x146)
    Menu ID                                  : 12106 (0x2F4A)
    Format                                   : AVC
    Format/Info                              : Advanced Video Codec
    Format profile                           : [email protected]
    Format settings, CABAC                   : Yes
    Format settings, ReFrames                : 4 frames
    Codec ID                                 : 27
    Duration                                 : 3mn 59s
    Bit rate                                 : 7 580 Kbps
    Width                                    : 1 920 pixels
    Height                                   : 1 080 pixels
    Display aspect ratio                     : 16:9
    Frame rate                               : 25.000 fps
    Color space                              : YUV
    Chroma subsampling                       : 4:2:0
    Bit depth                                : 8 bits
    Scan type                                : Interlaced
    Scan order                               : Top Field First
    Bits/(Pixel*Frame)                       : 0.146
    Stream size                              : 216 MiB (90%)
    Color range                              : Limited
    Color primaries                          : BT.709
    Transfer characteristics                 : BT.709
    Matrix coefficients                      : BT.709
    
    Audio
    ID                                       : 406 (0x196)
    Menu ID                                  : 12106 (0x2F4A)
    Format                                   : AC-3
    Format/Info                              : Audio Coding 3
    Mode extension                           : CM (complete main)
    Format settings, Endianness              : Big
    Codec ID                                 : 6
    Duration                                 : 3mn 59s
    Bit rate mode                            : Constant
    Bit rate                                 : 384 Kbps
    Channel(s)                               : 2 channels
    Channel positions                        : Front: L R
    Sampling rate                            : 48.0 KHz
    Bit depth                                : 16 bits
    Compression mode                         : Lossy
    Delay relative to video                  : 147ms
    Stream size                              : 11.0 MiB (5%)
    Language                                 : English
    Language, more info                      : Clean effects
    Server: cloud.mail.ru
    Hidden Content:
    You must reply before you can see the hidden data contained here.
     
    Luis Almeida and CELOBRAZiL like this.
  2. Loading...


  3. tf135

    tf135 Well-Known Member

    Joined:
    Nov 14, 2014
    Messages:
    1,827
    Likes Received:
    105
    thank you
     
  4. MCTR

    MCTR Active Member

    Joined:
    Feb 23, 2014
    Messages:
    290
    Likes Received:
    31
    thank you
     
  5. sideshow_bob

    sideshow_bob Well-Known Member

    Joined:
    Dec 20, 2013
    Messages:
    2,559
    Likes Received:
    144
    thank you
     
  6. Luis Almeida

    Luis Almeida Member

    Joined:
    Feb 4, 2015
    Messages:
    349
    Likes Received:
    14
    thank you
     
  7. revilo18

    revilo18 Well-Known Member

    Joined:
    May 26, 2016
    Messages:
    1,513
    Likes Received:
    65
    THANKKK