Alexandra Burke (feat. Flo-Rida) - Bad Boys (MTVNHD-1080i-DD2.0)

Discussion in 'MTVNHD' started by DETOX, Jan 21, 2016.

  1. DETOX

    DETOX I'm so sick of this fake love ♫ ❤️ V . I . P. Uploader

    Joined:
    Feb 20, 2014
    Messages:
    4,622
    Likes Received:
    38,511
    [​IMG]
    Code:
    General
    ID                                       : 8900 (0x22C4)
    Complete name                            : Alexandra Burke (feat. Flo-Rida) - Bad Boys (MTVNHD-1080i-DD2.0).ts
    Format                                   : MPEG-TS
    File size                                : 239 MiB
    Duration                                 : 3mn 59s
    Overall bit rate mode                    : Variable
    Overall bit rate                         : 8 382 Kbps
    
    Video
    ID                                       : 326 (0x146)
    Menu ID                                  : 12106 (0x2F4A)
    Format                                   : AVC
    Format/Info                              : Advanced Video Codec
    Format profile                           : Main@L4
    Format settings, CABAC                   : Yes
    Format settings, ReFrames                : 4 frames
    Codec ID                                 : 27
    Duration                                 : 3mn 59s
    Bit rate                                 : 7 580 Kbps
    Width                                    : 1 920 pixels
    Height                                   : 1 080 pixels
    Display aspect ratio                     : 16:9
    Frame rate                               : 25.000 fps
    Color space                              : YUV
    Chroma subsampling                       : 4:2:0
    Bit depth                                : 8 bits
    Scan type                                : Interlaced
    Scan order                               : Top Field First
    Bits/(Pixel*Frame)                       : 0.146
    Stream size                              : 216 MiB (90%)
    Color range                              : Limited
    Color primaries                          : BT.709
    Transfer characteristics                 : BT.709
    Matrix coefficients                      : BT.709
    
    Audio
    ID                                       : 406 (0x196)
    Menu ID                                  : 12106 (0x2F4A)
    Format                                   : AC-3
    Format/Info                              : Audio Coding 3
    Mode extension                           : CM (complete main)
    Format settings, Endianness              : Big
    Codec ID                                 : 6
    Duration                                 : 3mn 59s
    Bit rate mode                            : Constant
    Bit rate                                 : 384 Kbps
    Channel(s)                               : 2 channels
    Channel positions                        : Front: L R
    Sampling rate                            : 48.0 KHz
    Bit depth                                : 16 bits
    Compression mode                         : Lossy
    Delay relative to video                  : 147ms
    Stream size                              : 11.0 MiB (5%)
    Language                                 : English
    Language, more info                      : Clean effects
    Server: cloud.mail.ru
    Hidden Content:
    You must reply before you can see the hidden data contained here.
     
  2. Loading...


  3. tf135

    tf135 Well-Known Member

    Joined:
    Nov 14, 2014
    Messages:
    2,963
    Likes Received:
    178
    thank you
     
  4. MCTR

    MCTR Active Member

    Joined:
    Feb 23, 2014
    Messages:
    310
    Likes Received:
    47
    thank you
     
  5. sideshow_bob

    sideshow_bob Well-Known Member

    Joined:
    Dec 20, 2013
    Messages:
    3,180
    Likes Received:
    222
    thank you
     
  6. Luis Almeida

    Luis Almeida Active Member

    Joined:
    Feb 4, 2015
    Messages:
    849
    Likes Received:
    51
    thank you
     
  7. revilo18

    revilo18 Well-Known Member

    Joined:
    May 26, 2016
    Messages:
    2,048
    Likes Received:
    100
    THANKKK
     
  8. 1asad1

    1asad1 Member

    Joined:
    Apr 23, 2016
    Messages:
    159
    Likes Received:
    12
    thank you
     
  9. rocky9619

    rocky9619 Member

    Joined:
    Jun 17, 2017
    Messages:
    101
    Likes Received:
    0
    thank you
     
  10. zuluka

    zuluka Active Member

    Joined:
    Jul 9, 2016
    Messages:
    994
    Likes Received:
    30
    thanks
     
  11. brownbradpitt613

    brownbradpitt613 Member

    Joined:
    Sep 3, 2017
    Messages:
    683
    Likes Received:
    13
    thanks!
     
  12. thedomain

    thedomain Member

    Joined:
    Oct 21, 2016
    Messages:
    150
    Likes Received:
    6
    thank youu