Alesso feat. Tove Lo - Heroes (we could be) (BridgeHD-1080i-MP2-Olgold)-HDMania

Discussion in 'Bridge HD' started by Olgold, Oct 12, 2016.

  1. Olgold

    Olgold Well-Known Member Capper

    Joined:
    Aug 19, 2015
    Messages:
    436
    Likes Received:
    1,634
    Alesso feat. Tove Lo - Heroes (we could be)
    [​IMG]
    General
    Format : MPEG-TS
    File size : 116 MiB
    Duration : 3 min 41 s
    Overall bit rate mode : Variable
    Overall bit rate : 4 395 kb/s

    Video
    Format : AVC
    Format/Info : Advanced Video Codec
    Format profile : [email protected]
    Format settings, CABAC : Yes
    Format settings, ReFrames : 4 frames
    Duration : 3 min 39 s
    Bit rate : 3 984 kb/s
    Width : 1 920 pixels
    Height : 1 080 pixels
    Display aspect ratio : 16:9
    Frame rate : 25.000 FPS
    Standard : Component
    Color space : YUV
    Chroma subsampling : 4:2:0
    Bit depth : 8 bits
    Scan type : Interlaced
    Scan type, store method : Separated fields
    Scan order : Top Field First
    Bits/(Pixel*Frame) : 0.077
    Stream size : 104 MiB (90%)
    Color range : Limited

    Audio
    Format : MPEG Audio
    Format version : Version 1
    Format profile : Layer 2
    Duration : 3 min 40 s
    Bit rate mode : Constant
    Bit rate : 192 kb/s
    Channel(s) : 2 channels
    Sampling rate : 48.0 kHz
    Compression mode : Lossy
    Delay relative to video : 99 ms
    Stream size : 5.06 MiB (4%)
    Password: Olgold
    Hidden Content:
    You must reply before you can see the hidden data contained here.
     
    rudy95, CELOBRAZiL and rhea like this.
  2. Loading...


  3. rhea

    rhea Well-Known Member

    Joined:
    Jan 6, 2014
    Messages:
    6,145
    Likes Received:
    496
    thank you so much :)
     
  4. Grailen

    Grailen Well-Known Member

    Joined:
    Oct 8, 2013
    Messages:
    580
    Likes Received:
    727
    thank you :)
     
  5. CELOBRAZiL

    CELOBRAZiL Well-Known Member Capper V . I . P. Donor

    Joined:
    Oct 2, 2013
    Messages:
    2,986
    Likes Received:
    8,526
    Thank you so much! :)
     
  6. rudy95

    rudy95 Member

    Joined:
    Dec 31, 2016
    Messages:
    119
    Likes Received:
    2
    Good job
     
  7. terriblex

    terriblex New Member

    Joined:
    Feb 1, 2017
    Messages:
    18
    Likes Received:
    0
    THANKS
     
  8. waat

    waat Member

    Joined:
    Jan 19, 2015
    Messages:
    284
    Likes Received:
    2
    Thank you!!