Alesha Dixon - The Way We Are (DISNEYHD-1080i-AAC2.0-Dfrazzer)-HDMania

Discussion in 'DISNEY HD' started by Dfrazzer, Jul 10, 2015.

  1. Dfrazzer

    Dfrazzer Super Moderator Staff Member Super Moderator Capper V . I . P. Donor

    Joined:
    Nov 4, 2013
    Messages:
    4,642
    Likes Received:
    9,964
    [​IMG] [​IMG] [​IMG] [​IMG] [​IMG] [​IMG]

    Code:
    General
    ID : 1 (0x1)
    Complete name : D:\Alesha Dixon - The Way We Are Disney Channel 1080i HDMania.ts
    Format : MPEG-TS
    File size : 245 MiB
    Duration : 2mn 44s
    Overall bit rate mode : Variable
    Overall bit rate : 12.5 Mbps
    
    Video
    ID : 100 (0x64)
    Menu ID : 2 (0x2)
    Format : AVC
    Format/Info : Advanced Video Codec
    Format profile : [email protected]
    Format settings, CABAC : Yes
    Format settings, ReFrames : 2 frames
    Codec ID : 27
    Duration : 2mn 44s
    Bit rate mode : Variable
    Bit rate : 11.7 Mbps
    Maximum bit rate : 24.0 Mbps
    Width : 1 920 pixels
    Height : 1 080 pixels
    Display aspect ratio : 16:9
    Frame rate : 25.000 fps
    Color space : YUV
    Chroma subsampling : 4:2:0
    Bit depth : 8 bits
    Scan type : Interlaced
    Scan order : Top Field First
    Bits/(Pixel*Frame) : 0.226
    Stream size : 229 MiB (93%)
    Color primaries : BT.709
    Transfer characteristics : BT.709
    Matrix coefficients : BT.709
    
    Audio
    ID : 101 (0x65)
    Menu ID : 2 (0x2)
    Format : AAC
    Format/Info : Advanced Audio Codec
    Format version : Version 4
    Format profile : LC
    Muxing mode : ADTS
    Codec ID : 15
    Duration : 2mn 43s
    Bit rate mode : Variable
    Bit rate : 220 Kbps
    Channel(s) : 2 channels
    Channel positions : Front: L R
    Sampling rate : 48.0 KHz
    Compression mode : Lossy
    Stream size : 4.30 MiB (2%)
    
    Hidden Content:
    You must reply before you can see the hidden data contained here.
    Capped by me.
     
    rhea and CELOBRAZiL like this.
  2. rhea

    rhea Well-Known Member

    Joined:
    Jan 6, 2014
    Messages:
    6,610
    Likes Received:
    674
    thank you so much :)
     
  3. Zatimi

    Zatimi Active Member

    Joined:
    Aug 27, 2014
    Messages:
    719
    Likes Received:
    131
    thanks so much
     
  4. tf135

    tf135 Well-Known Member

    Joined:
    Nov 14, 2014
    Messages:
    2,244
    Likes Received:
    126
    thank you
     
  5. Crusha

    Crusha Well-Known Member Capper V . I . P.

    Joined:
    Oct 15, 2014
    Messages:
    2,355
    Likes Received:
    2,522
    thank you
     
  6. DETOX

    DETOX K-POP fan ♡ VIXX V . I . P. Uploader

    Joined:
    Feb 20, 2014
    Messages:
    3,337
    Likes Received:
    23,687
    Thank you so much!
     
  7. jayananda

    jayananda Active Member

    Joined:
    Jan 14, 2015
    Messages:
    512
    Likes Received:
    137
    Thank You
     
  8. BetaKsi

    BetaKsi Well-Known Member

    Joined:
    Oct 18, 2015
    Messages:
    1,117
    Likes Received:
    394
    Super Single)) Alesha - Beaty)) Thank you))
     
  9. sideshow_bob

    sideshow_bob Well-Known Member

    Joined:
    Dec 20, 2013
    Messages:
    2,899
    Likes Received:
    173
  10. plwww

    plwww Member

    Joined:
    May 28, 2016
    Messages:
    524
    Likes Received:
    24
    thanks
     
  11. FanofTheStars

    FanofTheStars Well-Known Member

    Joined:
    Feb 11, 2017
    Messages:
    1,097
    Likes Received:
    91
    Don't have this one. Thank you.