SDTV Alanis Morissette - Hand In My Pocket (Live at Saturday Night Live April 12th, 1997) [2.0 + 5.1]

Discussion in 'SD Live Performances' started by jempolgede, Aug 1, 2020 at 5:35 AM.

  1. jempolgede

    jempolgede Well-Known Member

    Joined:
    Dec 30, 2013
    Messages:
    534
    Likes Received:
    410
    [​IMG]
    Code:
    General
    Complete name                            : Alanis Morissette - Hand In My Pocket.vob
    Format                                   : MPEG-PS
    File size                                : 165 MiB
    Duration                                 : 4 min 5 s
    Overall bit rate mode                    : Variable
    Overall bit rate                         : 5 647 kb/s
    
    Video
    ID                                       : 224 (0xE0)
    Format                                   : MPEG Video
    Format version                           : Version 2
    Format profile                           : Main@Main
    Format settings, BVOP                    : Yes
    Format settings, Matrix                  : Custom
    Format settings, GOP                     : M=3, N=12
    Format settings, picture structure       : Frame
    Duration                                 : 4 min 5 s
    Bit rate mode                            : Variable
    Bit rate                                 : 4 894 kb/s
    Maximum bit rate                         : 9 000 kb/s
    Width                                    : 720 pixels
    Height                                   : 480 pixels
    Display aspect ratio                     : 4:3
    Frame rate                               : 29.970 (30000/1001) FPS
    Standard                                 : NTSC
    Color space                              : YUV
    Chroma subsampling                       : 4:2:0
    Bit depth                                : 8 bits
    Scan type                                : Interlaced
    Scan order                               : Top Field First
    Compression mode                         : Lossy
    Bits/(Pixel*Frame)                       : 0.473
    Time code of first frame                 : 01:17:05;25
    Time code source                         : Group of pictures header
    GOP, Open/Closed                         : Closed
    Stream size                              : 143 MiB (87%)
    
    Audio #1
    ID                                       : 189 (0xBD)-128 (0x80)
    Format                                   : AC-3
    Format/Info                              : Audio Coding 3
    Mode                                     : Dolby Digital
    Format settings, Endianness              : Big
    Muxing mode                              : DVD-Video
    Duration                                 : 4 min 5 s
    Bit rate mode                            : Constant
    Bit rate                                 : 192 kb/s
    Channel(s)                               : 2 channels
    Channel positions                        : Front: L R
    Sampling rate                            : 48.0 kHz
    Frame rate                               : 31.250 FPS (1536 SPF)
    Bit depth                                : 16 bits
    Compression mode                         : Lossy
    Delay relative to video                  : -169 ms
    Stream size                              : 5.63 MiB (3%)
    Service kind                             : Complete Main
    
    Audio #2
    ID                                       : 189 (0xBD)-129 (0x81)
    Format                                   : AC-3
    Format/Info                              : Audio Coding 3
    Format settings, Endianness              : Big
    Muxing mode                              : DVD-Video
    Duration                                 : 4 min 5 s
    Bit rate mode                            : Constant
    Bit rate                                 : 448 kb/s
    Channel(s)                               : 6 channels
    Channel positions                        : Front: L C R, Side: L R, LFE
    Sampling rate                            : 48.0 kHz
    Frame rate                               : 31.250 FPS (1536 SPF)
    Bit depth                                : 16 bits
    Compression mode                         : Lossy
    Delay relative to video                  : -190 ms
    Stream size                              : 13.1 MiB (8%)
    Service kind                             : Complete Main
    
    Menu
    
    
    Hidden Content:
    You must either reply or click 'Like' to see the hidden information contained here.
     
    carlos69, apl3, nafnoid and 1 other person like this.
  2. Loading...


  3. Arnaud

    Arnaud Active Member

    Joined:
    Oct 9, 2014
    Messages:
    302
    Likes Received:
    228
    Thank you for Alanis!
    Her new album was just released yesterday (July 31).
     
  4. brian182

    brian182 Well-Known Member

    Joined:
    Oct 14, 2013
    Messages:
    2,414
    Likes Received:
    148
  5. azamusic

    azamusic Well-Known Member Capper

    Joined:
    Dec 6, 2013
    Messages:
    1,381
    Likes Received:
    582