Alan Walker - Faded (BridgeHD-1080i-MP2-Olgold)-HDMania

Discussion in 'Bridge HD' started by Olgold, Oct 9, 2016.

  1. Olgold

    Olgold Well-Known Member Capper

    Joined:
    Aug 19, 2015
    Messages:
    436
    Likes Received:
    1,694
    Alan Walker - Faded
    [​IMG]
    General
    Format : MPEG-TS
    File size : 130 MiB
    Duration : 3 min 25 s
    Overall bit rate mode : Variable
    Overall bit rate : 5 325 kb/s

    Video
    Format : AVC
    Format/Info : Advanced Video Codec
    Format profile : [email protected]
    Format settings, CABAC : Yes
    Format settings, ReFrames : 4 frames
    Duration : 3 min 25 s
    Bit rate : 4 868 kb/s
    Width : 1 920 pixels
    Height : 1 080 pixels
    Display aspect ratio : 16:9
    Frame rate : 25.000 FPS
    Standard : Component
    Color space : YUV
    Chroma subsampling : 4:2:0
    Bit depth : 8 bits
    Scan type : Interlaced
    Scan type, store method : Separated fields
    Scan order : Top Field First
    Bits/(Pixel*Frame) : 0.094
    Stream size : 119 MiB (91%)
    Color range : Limited

    Audio
    Format : MPEG Audio
    Format version : Version 1
    Format profile : Layer 2
    Duration : 3 min 25 s
    Bit rate mode : Constant
    Bit rate : 192 kb/s
    Channel(s) : 2 channels
    Sampling rate : 48.0 kHz
    Compression mode : Lossy
    Delay relative to video : -24 ms
    Stream size : 4.69 MiB (4%)
    Password: Olgold

    Hidden Content:
    You must reply before you can see the hidden data contained here.
     
  2. Loading...


  3. rhea

    rhea Well-Known Member

    Joined:
    Jan 6, 2014
    Messages:
    6,810
    Likes Received:
    742
    thank you so much :)
     
  4. Dreamer

    Dreamer Lana Del Rey ♥ Halsey Capper V . I . P. Uploader

    Joined:
    Dec 4, 2014
    Messages:
    2,841
    Likes Received:
    4,150
    Thanks
     
  5. Grailen

    Grailen Well-Known Member

    Joined:
    Oct 8, 2013
    Messages:
    601
    Likes Received:
    764
    thank you :)
     
  6. CELOBRAZiL

    CELOBRAZiL Well-Known Member Capper V . I . P. Donor

    Joined:
    Oct 2, 2013
    Messages:
    4,020
    Likes Received:
    12,442
    Thank you so much! :)
     
  7. BinhTVT

    BinhTVT Member

    Joined:
    Jun 30, 2015
    Messages:
    182
    Likes Received:
    3
    thank u
     
  8. stonecottage

    stonecottage Member

    Joined:
    Oct 24, 2016
    Messages:
    103
    Likes Received:
    15
    thank you
     
  9. maurohachen

    maurohachen Member

    Joined:
    Feb 24, 2015
    Messages:
    439
    Likes Received:
    23
  10. MasterDemon

    MasterDemon Member

    Joined:
    Mar 14, 2017
    Messages:
    195
    Likes Received:
    11
    thanks you bro
     
  11. Stephan

    Stephan Member

    Joined:
    Aug 29, 2016
    Messages:
    90
    Likes Received:
    1
    Th
    Thanks....
     
  12. Zeeh

    Zeeh Rallyforrivers.org

    Joined:
    Mar 20, 2015
    Messages:
    670
    Likes Received:
    23
    Thanks
     
  13. sysadm77

    sysadm77 New Member

    Joined:
    Apr 10, 2017
    Messages:
    3
    Likes Received:
    0
    thanks
     
  14. curg

    curg Active Member

    Joined:
    Dec 6, 2013
    Messages:
    880
    Likes Received:
    33
    thank you
     
  15. lyana94

    lyana94 Well-Known Member

    Joined:
    Jul 5, 2017
    Messages:
    1,208
    Likes Received:
    39
    thanks
     
  16. anugrah97

    anugrah97 Member

    Joined:
    Aug 16, 2017
    Messages:
    93
    Likes Received:
    4
    Thanks