Akon feat. Eminem - Smack That (VIVAHD-1080i-DD2.0-Djodjara)-HDMania

Discussion in 'VIVA HD' started by Djodjara, Sep 6, 2014.

  1. joelh20101

    joelh20101 Well-Known Member

    Joined:
    Nov 4, 2013
    Messages:
    1,459
    Likes Received:
    142
    thanks for this
     
  2. touseef321

    touseef321 New Member

    Joined:
    Jun 10, 2015
    Messages:
    1
    Likes Received:
    0
    thank you :)
     
  3. furkan

    furkan Member

    Joined:
    Oct 9, 2015
    Messages:
    236
    Likes Received:
    7
    thnks youuuu
     
  4. oarthurcom

    oarthurcom Member

    Joined:
    Oct 23, 2015
    Messages:
    51
    Likes Received:
    1
    muito obrigado
     
  5. arnold

    arnold Member

    Joined:
    Oct 29, 2014
    Messages:
    234
    Likes Received:
    3
    thank you.
     
  6. awesomeguy91

    awesomeguy91 New Member

    Joined:
    Dec 2, 2015
    Messages:
    21
    Likes Received:
    2
    thank u
     
    Last edited by a moderator: Dec 4, 2015
  7. limonato

    limonato Member

    Joined:
    Dec 1, 2014
    Messages:
    205
    Likes Received:
    3
    thank you
     
  8. Cj2016

    Cj2016 Member

    Joined:
    Jan 15, 2016
    Messages:
    40
    Likes Received:
    1
    thank you
     
  9. DEJOTA

    DEJOTA Member

    Joined:
    Nov 25, 2015
    Messages:
    40
    Likes Received:
    0
    thanks
     
  10. TrendMusic

    TrendMusic Well-Known Member

    Joined:
    Oct 7, 2013
    Messages:
    1,094
    Likes Received:
    69
  11. andavas

    andavas Member

    Joined:
    Apr 8, 2016
    Messages:
    242
    Likes Received:
    7
  12. daronmalakian

    daronmalakian Member

    Joined:
    Sep 30, 2014
    Messages:
    256
    Likes Received:
    10
    Thx so much
     
  13. 1asad1

    1asad1 Member

    Joined:
    Apr 23, 2016
    Messages:
    114
    Likes Received:
    10
    thank you
     
  14. arasu123

    arasu123 Member

    Joined:
    Aug 8, 2016
    Messages:
    273
    Likes Received:
    10
  15. CristianMatias

    CristianMatias Member

    Joined:
    Sep 17, 2016
    Messages:
    580
    Likes Received:
    17
    Akon
    Akon feat. Eminem - Smack That (VIVA HD 1080i - Djodjara)

    [​IMG]
    [​IMG]
    [​IMG]
    [​IMG]

    General:
    Format : MPEG-TS
    File size : 223 MiB
    Duration : 3mn 30s
    Overall bit rate mode : Variable
    Overall bit rate : 8 875 Kbps

    Video:
    ID : 301 (0x12D)
    Menu ID : 1 (0x1)
    Format : AVC
    Format/Info : Advanced Video Codec
    Format profile : [email protected]
    Format settings, CABAC : Yes
    Format settings, ReFrames : 3 frames
    Codec ID : 27
    Duration : 3mn 31s
    Bit rate : 8 178 Kbps
    Width : 1 920 pixels
    Height : 1 080 pixels
    Display aspect ratio : 16:9
    Frame rate : 25.000 fps
    Color space : YUV
    Chroma subsampling : 4:2:0
    Bit depth : 8 bits
    Scan type : Interlaced
    Bits/(Pixel*Frame) : 0.158
    Stream size : 206 MiB (92%)
    Color primaries : BT.709
    Transfer characteristics : BT.709
    Matrix coefficients : BT.709

    Audio:
    ID : 302 (0x12E)
    Menu ID : 1 (0x1)
    Format : MPEG Audio
    Format version : Version 1
    Format profile : Layer 2
    Codec ID : 3
    Duration : 3mn 30s
    Bit rate mode : Constant
    Bit rate : 256 Kbps
    Channel count : 2 channels
    Sampling rate : 48.0 KHz
    Compression mode : Lossy
    Stream size : 6.44 MiB (3%)


    ***Hidden content cannot be quoted.***
    [/QUOTE]
     
  16. CristianMatias

    CristianMatias Member

    Joined:
    Sep 17, 2016
    Messages:
    580
    Likes Received:
    17
  17. serenity1203

    serenity1203 Member

    Joined:
    Sep 30, 2016
    Messages:
    60
    Likes Received:
    3
    siiiiiiii
     
  18. CristianMatias

    CristianMatias Member

    Joined:
    Sep 17, 2016
    Messages:
    580
    Likes Received:
    17
  19. CristianMatias

    CristianMatias Member

    Joined:
    Sep 17, 2016
    Messages:
    580
    Likes Received:
    17
  20. Praveen867

    Praveen867 Member

    Joined:
    Nov 14, 2016
    Messages:
    488
    Likes Received:
    3
    TYYYYYYYYYYYYYYYYYYYYYY