Akon feat. Eminem - Smack That (VIVAHD-1080i-DD2.0-Djodjara)-HDMania

Discussion in 'VIVA HD' started by Djodjara, Sep 6, 2014.

  1. Djodjara

    Djodjara Gwen Fan Capper

    Joined:
    Sep 6, 2014
    Messages:
    712
    Likes Received:
    1,167
    Akon feat. Eminem - Smack That (VIVA HD 1080i - Djodjara)

    [​IMG]
    [​IMG]
    [​IMG]
    [​IMG]

    General:
    Format : MPEG-TS
    File size : 223 MiB
    Duration : 3mn 30s
    Overall bit rate mode : Variable
    Overall bit rate : 8 875 Kbps

    Video:
    ID : 301 (0x12D)
    Menu ID : 1 (0x1)
    Format : AVC
    Format/Info : Advanced Video Codec
    Format profile : [email protected]
    Format settings, CABAC : Yes
    Format settings, ReFrames : 3 frames
    Codec ID : 27
    Duration : 3mn 31s
    Bit rate : 8 178 Kbps
    Width : 1 920 pixels
    Height : 1 080 pixels
    Display aspect ratio : 16:9
    Frame rate : 25.000 fps
    Color space : YUV
    Chroma subsampling : 4:2:0
    Bit depth : 8 bits
    Scan type : Interlaced
    Bits/(Pixel*Frame) : 0.158
    Stream size : 206 MiB (92%)
    Color primaries : BT.709
    Transfer characteristics : BT.709
    Matrix coefficients : BT.709

    Audio:
    ID : 302 (0x12E)
    Menu ID : 1 (0x1)
    Format : MPEG Audio
    Format version : Version 1
    Format profile : Layer 2
    Codec ID : 3
    Duration : 3mn 30s
    Bit rate mode : Constant
    Bit rate : 256 Kbps
    Channel count : 2 channels
    Sampling rate : 48.0 KHz
    Compression mode : Lossy
    Stream size : 6.44 MiB (3%)


    Hidden Content:
    You must reply before you can see the hidden data contained here.
     
  2. Loading...


  3. elejido10

    elejido10 Member

    Joined:
    Oct 27, 2013
    Messages:
    189
    Likes Received:
    0
  4. Katheryn

    Katheryn Well-Known Member

    Joined:
    Nov 29, 2013
    Messages:
    994
    Likes Received:
    2,273
    Thank you !
     
  5. franklele

    franklele Well-Known Member

    Joined:
    Nov 11, 2013
    Messages:
    1,849
    Likes Received:
    82
    thank you
     
  6. quake1

    quake1 New Member

    Joined:
    Sep 7, 2014
    Messages:
    10
    Likes Received:
    0
  7. dapape

    dapape Member

    Joined:
    Jun 9, 2014
    Messages:
    134
    Likes Received:
    1
    nice
     
  8. PedroCorrea

    PedroCorrea Active Member

    Joined:
    Aug 21, 2014
    Messages:
    358
    Likes Received:
    33
  9. gixuwalapo_bigprofessor

    gixuwalapo_bigprofessor New Member

    Joined:
    Sep 10, 2014
    Messages:
    1
    Likes Received:
    0
  10. Djodjara

    Djodjara Gwen Fan Capper

    Joined:
    Sep 6, 2014
    Messages:
    712
    Likes Received:
    1,167
    you're welcome guys
     
  11. Danilo Martins

    Danilo Martins Member Donor

    Joined:
    Apr 8, 2014
    Messages:
    90
    Likes Received:
    1
  12. klaus

    klaus Member

    Joined:
    Sep 11, 2014
    Messages:
    844
    Likes Received:
    10
    thanks
     
  13. DOTSFAM

    DOTSFAM Member

    Joined:
    Jan 4, 2014
    Messages:
    109
    Likes Received:
    1
    Thanks!:)
     
  14. MCTR

    MCTR Active Member

    Joined:
    Feb 23, 2014
    Messages:
    290
    Likes Received:
    31
  15. slill

    slill Member

    Joined:
    Jul 25, 2014
    Messages:
    929
    Likes Received:
    12
    thanks
     
  16. Gnatyx

    Gnatyx New Member

    Joined:
    Nov 13, 2014
    Messages:
    4
    Likes Received:
    1
    Thanks man
     
    sinshin likes this.
  17. mizdot

    mizdot Well-Known Member

    Joined:
    Nov 13, 2014
    Messages:
    1,237
    Likes Received:
    25
    tnx man
     
  18. demigod

    demigod New Member

    Joined:
    Nov 10, 2014
    Messages:
    18
    Likes Received:
    1
    thanks
     
  19. jahidbadboy

    jahidbadboy New Member

    Joined:
    Dec 6, 2014
    Messages:
    18
    Likes Received:
    5
    thanks buddy
     
  20. atakano

    atakano Member

    Joined:
    Oct 6, 2014
    Messages:
    219
    Likes Received:
    3
    thanks for video
     
  21. sinshin

    sinshin Member

    Joined:
    Jan 27, 2015
    Messages:
    75
    Likes Received:
    42
    mjkhk