DVD Aerosmith - Hole In My Soul (VOB, Mixmash)

Discussion in 'SD' started by markitomg, Sep 13, 2018 at 9:14 AM.

  1. markitomg

    markitomg Member

    Joined:
    May 24, 2016
    Messages:
    478
    Likes Received:
    11
    [​IMG]

    Video
    ID : 224 (0xE0)
    Format : MPEG Video
    Format version : Version 2
    Format profile : Main@Main
    Format settings, BVOP : No
    Format settings, Matrix : Default
    Format settings, GOP : M=3, N=12
    Duration : 6mn 7s
    Bit rate mode : Variable
    Bit rate : 5 678 Kbps
    Maximum bit rate : 6 500 Kbps
    Width : 720 pixels
    Height : 576 pixels
    Display aspect ratio : 4:3
    Frame rate : 25.000 fps
    Standard : PAL
    Color space : YUV
    Chroma subsampling : 4:2:0
    Bit depth : 8 bits
    Scan type : Progressive
    Compression mode : Lossy
    Bits/(Pixel*Frame) : 0.548
    Time code of first frame : 00:00:00:00
    Time code source : Group of pictures header
    Stream size : 249 MiB (77%)
    Color primaries : BT.601 PAL
    Transfer characteristics : BT.470 System B, BT.470 System G
    Matrix coefficients : BT.601

    Audio
    ID : 189 (0xBD)-160 (0xA0)
    Format : PCM
    Format settings, Endianness : Big
    Format settings, Sign : Signed
    Muxing mode : DVD-Video
    Duration : 6mn 7s
    Bit rate mode : Constant
    Bit rate : 1 536 Kbps
    Channel(s) : 2 channels
    Sampling rate : 48.0 KHz
    Bit depth : 16 bits
    Stream size : 67.3 MiB (21%)


    Hidden Content:
    You must reply before you can see the hidden data contained here.
     
  2. Loading...


  3. jb13

    jb13 Member

    Joined:
    Oct 24, 2017
    Messages:
    324
    Likes Received:
    10
  4. Entiuno

    Entiuno New Member

    Joined:
    Jun 26, 2018
    Messages:
    12
    Likes Received:
    0
  5. shila

    shila Member

    Joined:
    Dec 3, 2013
    Messages:
    291
    Likes Received:
    18
    thanksssssssssssssssssssss