DVD Aerosmith - Hole In My Soul (VOB, Mixmash)

Discussion in 'SD' started by markitomg, Sep 13, 2018.

  1. markitomg

    markitomg Well-Known Member

    Joined:
    May 24, 2016
    Messages:
    1,491
    Likes Received:
    879
    [​IMG]
    [​IMG]
    Video
    ID : 224 (0xE0)
    Format : MPEG Video
    Format version : Version 2
    Format profile : Main@Main
    Format settings, BVOP : No
    Format settings, Matrix : Default
    Format settings, GOP : M=3, N=12
    Duration : 6mn 7s
    Bit rate mode : Variable
    Bit rate : 5 678 Kbps
    Maximum bit rate : 6 500 Kbps
    Width : 720 pixels
    Height : 576 pixels
    Display aspect ratio : 4:3
    Frame rate : 25.000 fps
    Standard : PAL
    Color space : YUV
    Chroma subsampling : 4:2:0
    Bit depth : 8 bits
    Scan type : Progressive
    Compression mode : Lossy
    Bits/(Pixel*Frame) : 0.548
    Time code of first frame : 00:00:00:00
    Time code source : Group of pictures header
    Stream size : 249 MiB (77%)
    Color primaries : BT.601 PAL
    Transfer characteristics : BT.470 System B, BT.470 System G
    Matrix coefficients : BT.601

    Audio
    ID : 189 (0xBD)-160 (0xA0)
    Format : PCM
    Format settings, Endianness : Big
    Format settings, Sign : Signed
    Muxing mode : DVD-Video
    Duration : 6mn 7s
    Bit rate mode : Constant
    Bit rate : 1 536 Kbps
    Channel(s) : 2 channels
    Sampling rate : 48.0 KHz
    Bit depth : 16 bits
    Stream size : 67.3 MiB (21%)


    Hidden Content:
    You must reply before you can see the hidden data contained here.
     
    Last edited: Oct 4, 2018
    maicoon and ALEXnROCK like this.
  2. Loading...


  3. jb13

    jb13 Active Member

    Joined:
    Oct 24, 2017
    Messages:
    714
    Likes Received:
    40
    gracias
     
  4. Entiuno

    Entiuno New Member

    Joined:
    Jun 26, 2018
    Messages:
    17
    Likes Received:
    1
    thank you
     
  5. shila

    shila Member

    Joined:
    Dec 3, 2013
    Messages:
    350
    Likes Received:
    23
    thanksssssssssssssssssssss
     
  6. shing000

    shing000 Well-Known Member

    Joined:
    Mar 13, 2016
    Messages:
    1,785
    Likes Received:
    176
    thanks
     
  7. 96lagos

    96lagos Active Member

    Joined:
    Dec 4, 2016
    Messages:
    963
    Likes Received:
    55
    Thanks
     
  8. kyros

    kyros Active Member

    Joined:
    Oct 21, 2015
    Messages:
    846
    Likes Received:
    40
    thanks
     
  9. kyros

    kyros Active Member

    Joined:
    Oct 21, 2015
    Messages:
    846
    Likes Received:
    40
    thanks
     
  10. ricards51

    ricards51 Well-Known Member

    Joined:
    Oct 10, 2016
    Messages:
    1,585
    Likes Received:
    38
    very special
     
  11. janito33

    janito33 Member

    Joined:
    Dec 10, 2014
    Messages:
    634
    Likes Received:
    18
    gracias por el video
     
  12. larryxd

    larryxd Member

    Joined:
    Jun 3, 2016
    Messages:
    185
    Likes Received:
    7
    gracias
     
  13. johnnyzarate

    johnnyzarate Active Member

    Joined:
    Dec 26, 2018
    Messages:
    1,036
    Likes Received:
    23
  14. WilD

    WilD Member

    Joined:
    Feb 19, 2019
    Messages:
    253
    Likes Received:
    4
    gracias
     
  15. Shing800

    Shing800 Member

    Joined:
    Feb 21, 2019
    Messages:
    533
    Likes Received:
    14
    Thanks!!
     
  16. christian Cnz

    christian Cnz Member

    Joined:
    Jan 7, 2018
    Messages:
    128
    Likes Received:
    4
    gdgdgdfgdf
     
  17. yanjamacaru

    yanjamacaru Well-Known Member

    Joined:
    Dec 21, 2018
    Messages:
    1,793
    Likes Received:
    44
    thanks
     
  18. maicoon

    maicoon Member

    Joined:
    Sep 25, 2017
    Messages:
    34
    Likes Received:
    2
    [​IMG]
    Video
    ID : 224 (0xE0)
    Format : MPEG Video
    Format version : Version 2
    Format profile : Main@Main
    Format settings, BVOP : No
    Format settings, Matrix : Default
    Format settings, GOP : M=3, N=12
    Duration : 6mn 7s
    Bit rate mode : Variable
    Bit rate : 5 678 Kbps
    Maximum bit rate : 6 500 Kbps
    Width : 720 pixels
    Height : 576 pixels
    Display aspect ratio : 4:3
    Frame rate : 25.000 fps
    Standard : PAL
    Color space : YUV
    Chroma subsampling : 4:2:0
    Bit depth : 8 bits
    Scan type : Progressive
    Compression mode : Lossy
    Bits/(Pixel*Frame) : 0.548
    Time code of first frame : 00:00:00:00
    Time code source : Group of pictures header
    Stream size : 249 MiB (77%)
    Color primaries : BT.601 PAL
    Transfer characteristics : BT.470 System B, BT.470 System G
    Matrix coefficients : BT.601

    Audio
    ID : 189 (0xBD)-160 (0xA0)
    Format : PCM
    Format settings, Endianness : Big
    Format settings, Sign : Signed
    Muxing mode : DVD-Video
    Duration : 6mn 7s
    Bit rate mode : Constant
    Bit rate : 1 536 Kbps
    Channel(s) : 2 channels
    Sampling rate : 48.0 KHz
    Bit depth : 16 bits
    Stream size : 67.3 MiB (21%)


    ***Hidden content cannot be quoted.***[/QUOTE]
     
  19. Biel wicthoff

    Biel wicthoff Member

    Joined:
    Nov 7, 2016
    Messages:
    395
    Likes Received:
    15
  20. Lipe8731

    Lipe8731 Member

    Joined:
    May 5, 2019
    Messages:
    32
    Likes Received:
    0
    thanksss!
     
  21. Dublasilfilmes

    Dublasilfilmes Member

    Joined:
    Feb 25, 2018
    Messages:
    87
    Likes Received:
    5