Adele - When We Were Young(W9 HD)HDTV-1080i.@rt-v-k.HDMania

Discussion in 'W9 HD' started by art-v-k, Mar 11, 2016.

  1. art-v-k

    art-v-k Well-Known Member Capper

    Joined:
    Nov 1, 2013
    Messages:
    182
    Likes Received:
    6,575
    Adele - When We Were Young(W9 HD)HDTV-1080i.@rt-v-k.HDMania
    [​IMG] [​IMG] [​IMG] [​IMG]
    Complete name : Adele - When We Were Young(W9 HD)HDTV-1080i.@rt-v-k.HDMania.ts
    Format : MPEG-TS
    File size : 149 MiB
    Duration : 5mn 37s
    Overall bit rate mode : Variable
    Overall bit rate : 3 706 Kbps

    Video
    ID : 410 (0x19A)
    Menu ID : 9304 (0x2458)
    Format : AVC
    Format/Info : Advanced Video Codec
    Format profile : [email protected]
    Format settings, CABAC : Yes
    Format settings, ReFrames : 4 frames
    Format settings, GOP : M=8, N=24
    Codec ID : 27
    Duration : 5mn 36s
    Bit rate : 2 747 Kbps
    Width : 1 920 pixels
    Height : 1 080 pixels
    Display aspect ratio : 16:9
    Frame rate : 25.000 fps
    Standard : Component
    Color space : YUV
    Chroma subsampling : 4:2:0
    Bit depth : 8 bits
    Scan type : MBAFF
    Scan type, store method : Interleaved fields
    Scan order : Top Field First
    Bits/(Pixel*Frame) : 0.053
    Stream size : 110 MiB (74%)
    Encryption : Seca Mediaguard 1/2
    Color range : Limited
    Color primaries : BT.709
    Transfer characteristics : BT.709
    Matrix coefficients : BT.709

    Audio #1
    ID : 421 (0x1A5)
    Menu ID : 9304 (0x2458)
    Format : AC-3
    Format/Info : Audio Coding 3
    Mode extension : CM (complete main)
    Format settings, Endianness : Big
    Codec ID : 6
    Duration : 5mn 37s
    Bit rate mode : Constant
    Bit rate : 384 Kbps
    Channel(s) : 6 channels
    Channel positions : Front: L C R, Side: L R, LFE
    Sampling rate : 48.0 KHz
    Frame rate : 31.250 fps (1536 spf)
    Compression mode : Lossy
    Delay relative to video : 16ms
    Stream size : 15.5 MiB (10%)
    Language : French
    Encryption : Seca Mediaguard 1/2

    Audio #2
    ID : 422 (0x1A6)
    Menu ID : 9304 (0x2458)
    Format : AC-3
    Format/Info : Audio Coding 3
    Mode extension : CM (complete main)
    Format settings, Endianness : Big
    Codec ID : 6
    Duration : 5mn 37s
    Bit rate mode : Constant
    Bit rate : 192 Kbps
    Channel(s) : 2 channels
    Channel positions : Front: L R
    Sampling rate : 48.0 KHz
    Frame rate : 31.250 fps (1536 spf)
    Compression mode : Lossy
    Delay relative to video : 16ms
    Stream size : 7.73 MiB (5%)
    Language : English
    Encryption : Seca Mediaguard 1/2

    Audio #3
    ID : 423 (0x1A7)
    Menu ID : 9304 (0x2458)
    Format : AC-3
    Format/Info : Audio Coding 3
    Mode extension : CM (complete main)
    Format settings, Endianness : Big
    Codec ID : 6
    Duration : 5mn 37s
    Bit rate mode : Constant
    Bit rate : 192 Kbps
    Channel(s) : 2 channels
    Channel positions : Front: L R
    Sampling rate : 48.0 KHz
    Frame rate : 31.250 fps (1536 spf)
    Compression mode : Lossy
    Delay relative to video : 16ms
    Stream size : 7.73 MiB (5%)
    Language : qad
    Encryption : Seca Mediaguard 1/2

    Text
    ID : 443 (0x1BB)
    Menu ID : 9304 (0x2458)
    Format : DVB Subtitle
    Codec ID : 6
    Duration : 5mn 35s
    Delay relative to video : 1s 840ms
    Language : French

    .......................................................
    Hidden Content:
    You must either reply or click 'Like' to see the hidden information contained here.
     
    Albano Salinas, Dreamer, rhea and 2 others like this.
  2. danixat

    danixat Katycat ^-^ Capper V . I . P. Donor

    Joined:
    Feb 23, 2014
    Messages:
    1,144
    Likes Received:
    5,788
    Thanks! :victory:
     
  3. rhea

    rhea Well-Known Member

    Joined:
    Jan 6, 2014
    Messages:
    5,193
    Likes Received:
    250
    thank you so much! :)
     
  4. Joseph

    Joseph Active Member

    Joined:
    Dec 10, 2013
    Messages:
    726
    Likes Received:
    144
    THANK YOU!!!
     
  5. multimediafm

    multimediafm Well-Known Member Donor

    Joined:
    Mar 27, 2014
    Messages:
    8,058
    Likes Received:
    320
  6. Dreamer

    Dreamer ♫ It's Britney Bitch ♫ Capper Uploader

    Joined:
    Dec 4, 2014
    Messages:
    2,138
    Likes Received:
    1,802
    Thank you so much!
     
  7. Q8Diesel

    Q8Diesel Member

    Joined:
    Apr 2, 2016
    Messages:
    124
    Likes Received:
    0
    thaaaaaanx