Adele - Skyfall (MTVIdol-1080i-DD2.0)-Olgold

Discussion in 'MTV IDOL' started by Olgold, Aug 19, 2015.

  1. Olgold

    Olgold Well-Known Member Capper

    Joined:
    Aug 19, 2015
    Messages:
    436
    Likes Received:
    1,708
    [​IMG]
    General
    Format : MPEG-TS
    File size : 129 MiB
    Duration : 4mn 38s
    Overall bit rate mode : Variable
    Overall bit rate : 3 866 Kbps

    Video
    Format : AVC
    Format/Info : Advanced Video Codec
    Format profile : [email protected]
    Format settings, CABAC : Yes
    Format settings, ReFrames : 4 frames
    Codec ID : 27
    Duration : 4mn 38s
    Bit rate : 3 417 Kbps
    Width : 1 920 pixels
    Height : 1 080 pixels
    Display aspect ratio : 16:9
    Frame rate : 25.000 fps
    Standard : Component
    Color space : YUV
    Chroma subsampling : 4:2:0
    Bit depth : 8 bits
    Scan type : MBAFF
    Scan order : Top Field First
    Bits/(Pixel*Frame) : 0.066
    Stream size : 113 MiB (88%)
    Color range : Limited

    Audio
    Format : AC-3
    Format/Info : Audio Coding 3
    Mode extension : CM (complete main)
    Format settings, Endianness : Big
    Duration : 4mn 38s
    Bit rate mode : Constant
    Bit rate : 256 Kbps
    Channel(s) : 2 channels
    Channel positions : Front: L R
    Sampling rate : 48.0 KHz
    Compression mode : Lossy
    Delay relative to video : 112ms
    Stream size : 8.50 MiB (7%)
    Language : French
    Language, more info : Clean effects

    Hidden Content:
    You must reply before you can see the hidden data contained here.
     
    rvden, Albano Salinas, rhea and 2 others like this.
  2. Crusha

    Crusha Well-Known Member Capper V . I . P.

    Joined:
    Oct 15, 2014
    Messages:
    2,358
    Likes Received:
    2,649
    thank you
     
  3. 777josem

    777josem ProRes 1080p LPCM V . I . P. Uploader

    Joined:
    Sep 1, 2014
    Messages:
    3,690
    Likes Received:
    2,915
    Thank you so much!
     
  4. MaggieS

    MaggieS Well-Known Member

    Joined:
    Sep 19, 2014
    Messages:
    1,046
    Likes Received:
    53
    tnx
     
  5. hungquocphan

    hungquocphan Active Member

    Joined:
    Nov 1, 2013
    Messages:
    619
    Likes Received:
    33
    thank for share
     
  6. rhea

    rhea Well-Known Member

    Joined:
    Jan 6, 2014
    Messages:
    6,915
    Likes Received:
    751
    thank you so much :)
     
  7. lukierrywhere

    lukierrywhere Member

    Joined:
    May 1, 2015
    Messages:
    170
    Likes Received:
    4
  8. cero

    cero Member

    Joined:
    Nov 1, 2013
    Messages:
    131
    Likes Received:
    1
    thanks u!!!!
     
  9. MCTR

    MCTR Active Member

    Joined:
    Feb 23, 2014
    Messages:
    295
    Likes Received:
    41
    thank you
     
  10. Flaxdevil

    Flaxdevil Member

    Joined:
    May 25, 2014
    Messages:
    285
    Likes Received:
    11
  11. puppiesandkittens

    puppiesandkittens Member

    Joined:
    Jun 19, 2014
    Messages:
    158
    Likes Received:
    8
  12. Snorom6

    Snorom6 Well-Known Member V . I . P. Uploader

    Joined:
    Dec 17, 2015
    Messages:
    4,248
    Likes Received:
    5,153
  13. mman

    mman Member

    Joined:
    Jan 21, 2015
    Messages:
    95
    Likes Received:
    1
    thank you
     
  14. Albano Salinas

    Albano Salinas Well-Known Member

    Joined:
    Nov 6, 2014
    Messages:
    477
    Likes Received:
    1,060
    thanks so much!--
     
  15. tapions

    tapions Active Member

    Joined:
    Aug 30, 2016
    Messages:
    909
    Likes Received:
    77
    gracias
     
  16. revilo18

    revilo18 Well-Known Member

    Joined:
    May 26, 2016
    Messages:
    1,875
    Likes Received:
    85
    THANKKK
     
  17. Pedro16

    Pedro16 Member

    Joined:
    Jan 16, 2017
    Messages:
    180
    Likes Received:
    7
    Thanks!!!
     
  18. rvden

    rvden Well-Known Member

    Joined:
    Apr 9, 2017
    Messages:
    406
    Likes Received:
    258
    Thank you
     
  19. jorotre

    jorotre Member

    Joined:
    Dec 21, 2015
    Messages:
    396
    Likes Received:
    4
    THANKS
     
  20. cool

    cool New Member

    Joined:
    Mar 6, 2017
    Messages:
    13
    Likes Received:
    0
    thanks