Adele - Send My Love (To Your New Lover) (MULTISHOW.HD.1080i.DD5.1).-Crusha

Discussion in 'MULTISHOW HD' started by Crusha, Aug 9, 2016.

  1. Crusha

    Crusha Well-Known Member Capper V . I . P.

    Joined:
    Oct 15, 2014
    Messages:
    2,357
    Likes Received:
    2,523
    [​IMG]

    Mediainfo

    Code:
    General
    ID                             : 1 (0x1)
    Complete name                  : Adele - Send My Love (To Your New Lover) (MULTISHOW.HD.1080i.DD5.1).-Crusha.ts
    Format                         : MPEG-TS
    File size                      : 161 MiB
    Duration                       : 3mn 45s
    Overall bit rate mode          : Variable
    Overall bit rate               : 5 992 Kbps
    
    Video
    ID                             : 2593 (0xA21)
    Menu ID                        : 2542 (0x9EE)
    Format                         : AVC
    Format/Info                    : Advanced Video Codec
    Format profile                 : [email protected]
    Format settings, CABAC         : Yes
    Format settings, ReFrames      : 4 frames
    Codec ID                       : 27
    Duration                       : 3mn 45s
    Bit rate                       : 5 308 Kbps
    Width                          : 1 920 pixels
    Height                         : 1 080 pixels
    Display aspect ratio           : 16:9
    Frame rate                     : 29.970 fps
    Standard                       : Component
    Color space                    : YUV
    Chroma subsampling             : 4:2:0
    Bit depth                      : 8 bits
    Scan type                      : MBAFF
    Scan order                     : Top Field First
    Bits/(Pixel*Frame)             : 0.085
    Stream size                    : 143 MiB (89%)
    Color range                    : Limited
    Color primaries                : BT.709
    Transfer characteristics       : BT.709
    Matrix coefficients            : BT.709
    
    Audio
    ID                             : 3593 (0xE09)
    Menu ID                        : 2542 (0x9EE)
    Format                         : AC-3
    Format/Info                    : Audio Coding 3
    Mode extension                 : CM (complete main)
    Format settings, Endianness    : Big
    Codec ID                       : 6
    Duration                       : 3mn 45s
    Bit rate mode                  : Constant
    Bit rate                       : 384 Kbps
    Channel(s)                     : 6 channels
    Channel positions              : Front: L C R, Side: L R, LFE
    Sampling rate                  : 48.0 KHz
    Bit depth                      : 16 bits
    Compression mode               : Lossy
    Stream size                    : 10.3 MiB (6%)
    Language                       : Portuguese
    
    
    Hidden Content:
    You must reply before you can see the hidden data contained here.
    Password: crusha
     
    Leonardo Castelo likes this.
  2. killers23

    killers23 Active Member

    Joined:
    Feb 27, 2015
    Messages:
    622
    Likes Received:
    83
  3. sicario3850

    sicario3850 New Member

    Joined:
    Aug 14, 2016
    Messages:
    18
    Likes Received:
    0
  4. miyara

    miyara xoxo bonbon V . I . P. Uploader

    Joined:
    Feb 21, 2016
    Messages:
    1,040
    Likes Received:
    2,698
    Thank you so much for Adele. :love:
     
  5. hungquocphan

    hungquocphan Active Member

    Joined:
    Nov 1, 2013
    Messages:
    576
    Likes Received:
    28
    thank for share
     
  6. Pedro Correia

    Pedro Correia Active Member

    Joined:
    Apr 17, 2014
    Messages:
    960
    Likes Received:
    93
    Thank you!
     
  7. video60fps

    video60fps Member

    Joined:
    Nov 3, 2016
    Messages:
    63
    Likes Received:
    0
    hello
     
  8. Leonardo Castelo

    Leonardo Castelo Member

    Joined:
    Jun 12, 2017
    Messages:
    95
    Likes Received:
    6
    Obrigado
     
  9. edsonavril33

    edsonavril33 Member

    Joined:
    Jun 17, 2017
    Messages:
    251
    Likes Received:
    11