HDTV Adele Live in New York City Extended Version(+5 additional songs) 1080i DD 5.1 MPEG2 mkv

Discussion in 'HD Live Performances' started by nazopo, May 12, 2016.

  1. nazopo

    nazopo Active Member

    Joined:
    Apr 29, 2015
    Messages:
    76
    Likes Received:
    185
    Adele Live in New York City was Adele's one-night-only show at Radio City Music Hall, which took place on November 17, 2015. The show was directed by Beth McCarthy-Miller and broadcast on NBC on December 14, 2015. Jimmy Fallon served as the host, while Adele, Jonathan Dickins, and Lorne Michaels served as its executive producers.

    This May 6th, 2016 encore broadcast added the 5 remaining songs that were performed but not included in the original broadcast. These 5 additional songs are: "Water Under the Bridge", "One and Only", "Hometown Glory", "Chasing Pavements", and "Daydreamer".

    More on the encore showing here: http://tvline.com/2016/04/15/adele-concert-rebroadcast-nbc-five-new-songs-chasing-pavements/

    [​IMG]
    [​IMG]
    [​IMG]
    [​IMG]
    [​IMG]
    [​IMG]
    [​IMG]
    General
    Unique ID :
    226232713914693858675831394787414375538 (0xAA32D5F7D4625564B9DE015B61DDFC72)
    Complete name :
    /Volumes/NO NAME/Adele - Live in New York City (Radio City Music Hall) 2015.mkv
    Format :
    Matroska
    Format version :
    Version 4 / Version 2
    File size :
    5.43 GiB
    Duration :
    1h 4mn
    Overall bit rate mode :
    Variable
    Overall bit rate :
    12.1 Mbps
    Encoded date :
    UTC 2016-05-07 06:37:28
    Writing application :
    mkvmerge v8.4.0 ('A better way to fly') 64bit
    Writing library :
    libebml v1.3.1 + libmatroska v1.4.2
    Video
    ID :
    1
    Format :
    MPEG Video
    Format version :
    Version 2
    Format profile :
    [email protected]
    Format settings, BVOP :
    Yes
    Format settings, Matrix :
    Custom
    Format settings, GOP :
    Variable
    Format settings, picture structure :
    Frame
    Codec ID :
    V_MPEG2
    Codec ID/Info :
    MPEG 1 or 2 Video
    Duration :
    1h 4mn
    Bit rate mode :
    Variable
    Bit rate :
    11.8 Mbps
    Maximum bit rate :
    25.0 Mbps
    Width :
    1 920 pixels
    Height :
    1 080 pixels
    Display aspect ratio :
    16:9
    Active Format Description :
    Full frame 16:9 image
    Frame rate mode :
    Constant
    Frame rate :
    29.970 (30000/1001) fps
    Color space :
    YUV
    Chroma subsampling :
    4:2:0
    Bit depth :
    8 bits
    Scan type :
    Interlaced
    Scan order :
    Top Field First
    Compression mode :
    Lossy
    Bits/(Pixel*Frame) :
    0.189
    Time code of first frame :
    00:00:00;00
    Time code source :
    Group of pictures header
    GOP, Open/Closed :
    Open
    Stream size :
    5.25 GiB (97%)
    Default :
    Yes
    Forced :
    No
    Audio
    ID :
    2
    Format :
    AC-3
    Format/Info :
    Audio Coding 3
    Mode extension :
    CM (complete main)
    Format settings, Endianness :
    Big
    Codec ID :
    A_AC3
    Duration :
    1h 4mn
    Bit rate mode :
    Constant
    Bit rate :
    384 Kbps
    Channel(s) :
    6 channels
    Channel positions :
    Front: L C R, Side: L R, LFE
    Sampling rate :
    48.0 KHz
    Frame rate :
    31.250 fps (1536 spf)
    Compression mode :
    Lossy
    Delay relative to video :
    2ms
    Stream size :
    176 MiB (3%)
    Default :
    Yes
    Forced :
    No

    Hidden Content:
    You must either reply or click 'Like' to see the hidden information contained here.
     
  2. Loading...


  3. melgar

    melgar Member

    Joined:
    Apr 12, 2014
    Messages:
    298
    Likes Received:
    18
    A Big Thank You For This
     
  4. Jascka

    Jascka Active Member

    Joined:
    Nov 9, 2015
    Messages:
    523
    Likes Received:
    81
    Oh! Thanks a lot! :blush:
     
  5. Bruno

    Bruno Well-Known Member

    Joined:
    Nov 3, 2013
    Messages:
    1,197
    Likes Received:
    75
    wow so many thx
     
  6. digimaze

    digimaze Active Member

    Joined:
    Feb 11, 2015
    Messages:
    826
    Likes Received:
    32
    Thanks for adorable Adele!
     
  7. handydandy09

    handydandy09 Member

    Joined:
    Nov 30, 2015
    Messages:
    379
    Likes Received:
    22
    YES! thanks
     
  8. Beyonce

    Beyonce Member

    Joined:
    Apr 19, 2014
    Messages:
    76
    Likes Received:
    0
    Thank you very much for this!
     
  9. trinhhoaihuongthao

    trinhhoaihuongthao Member

    Joined:
    May 16, 2015
    Messages:
    38
    Likes Received:
    1
    Thank you very much for this!
     
  10. Dilson Nunes

    Dilson Nunes Member

    Joined:
    Sep 21, 2014
    Messages:
    177
    Likes Received:
    20
  11. Adriano Everton

    Adriano Everton Well-Known Member

    Joined:
    Aug 25, 2014
    Messages:
    1,203
    Likes Received:
    85
  12. jayloro

    jayloro Member

    Joined:
    Oct 15, 2013
    Messages:
    209
    Likes Received:
    3
    wow great
     
  13. Anorak

    Anorak Member

    Joined:
    Nov 21, 2015
    Messages:
    39
    Likes Received:
    3
    Thank you.
     
  14. multimediafm

    multimediafm Well-Known Member Donor

    Joined:
    Mar 27, 2014
    Messages:
    8,484
    Likes Received:
    352
    Thanks :)
    Adele Live in New York City Extended Version(+5 additional songs) 1080i DD 5.1 MPEG2 mkv
     
  15. WFSJ92

    WFSJ92 Member

    Joined:
    Aug 23, 2014
    Messages:
    297
    Likes Received:
    16
    thank you
     
  16. luismolinanyc

    luismolinanyc Member

    Joined:
    May 17, 2016
    Messages:
    366
    Likes Received:
    13
    yes thanks
     
  17. carlosbcs28

    carlosbcs28 New Member

    Joined:
    Oct 22, 2015
    Messages:
    8
    Likes Received:
    0
    Thank you so much
     
  18. crispicazzo

    crispicazzo Member

    Joined:
    Dec 19, 2015
    Messages:
    308
    Likes Received:
    19
    Thank you so much!!
     
  19. Ju55

    Ju55 Active Member

    Joined:
    Jul 10, 2015
    Messages:
    740
    Likes Received:
    123
    thank you
     
  20. veenx0704

    veenx0704 Well-Known Member

    Joined:
    Apr 11, 2016
    Messages:
    216
    Likes Received:
    423
    thank you so much for hd qualitites!:love:
     
  21. goooody

    goooody New Member

    Joined:
    Oct 22, 2015
    Messages:
    12
    Likes Received:
    3
    Thank you so much for this!
    I've seen her 3 days ago in Zürich - one of the best concerts ever seen with one of the greatest entertainers of our generation!
     
    gregory1993 likes this.