HDTV Adele - Live in New York City 2015 Special 1080i HDTV DD5.1 MPEG2

Discussion in 'HD Live Performances' started by royevilone, Jan 8, 2017.

  1. royevilone

    royevilone Well-Known Member

    Joined:
    Feb 16, 2016
    Messages:
    817
    Likes Received:
    378
    Adele - Live in New York City 2015 Special 1080i HDTV DD5.1 MPEG2

    [​IMG]
    Code:
    General
    
    ID                             : 16 (0x10)
    Complete name                  : E:\Adele\2015.11.17 - Radio City Music Hall, New York, NY, USA\Source 2:Full Concert\Adele - Live in New York City 2015 Special 1080i HDTV DD5.1 MPEG2.ts
    Format                         : MPEG-TS
    File size                      : 7.38 GiB
    Duration                       : 1h 3mn
    Overall bit rate mode          : Variable
    Overall bit rate               : 16.5 Mbps
    Law rating                     : TV-PG (L)
    
    Video
    ID                             : 1051 (0x41B)
    Menu ID                        : 3105 (0xC21)
    Format                         : MPEG Video
    Format version                 : Version 2
    Format profile                 : [email protected]
    Format settings, BVOP          : Yes
    Format settings, Matrix        : Custom
    Format settings, GOP           : Variable
    Format settings, picture struc : Frame
    Codec ID                       : 2
    Duration                       : 1h 3mn
    Bit rate mode                  : Variable
    Bit rate                       : 15.1 Mbps
    Maximum bit rate               : 24.0 Mbps
    Width                          : 1 920 pixels
    Height                         : 1 080 pixels
    Display aspect ratio           : 16:9
    Active Format Description      : Full frame 16:9 image
    Frame rate                     : 29.970 fps
    Color space                    : YUV
    Chroma subsampling             : 4:2:0
    Bit depth                      : 8 bits
    Scan type                      : Interlaced
    Scan order                     : Top Field First
    Compression mode               : Lossy
    Bits/(Pixel*Frame)             : 0.243
    Time code of first frame       : 00:00:00:00
    Time code source               : Group of pictures header
    GOP, Open/Closed               : Open
    GOP, Open/Closed of first fram : Closed
    Stream size                    : 6.76 GiB (92%)
    Writing library                : (c) 1998-2011 Womble Multimedia, Inc. / MPEG Video Wizard DVD 5.0.1.100 (03/2011) / Dec 15 2011
    
    Audio #1
    ID                             : 1052 (0x41C)
    Menu ID                        : 3105 (0xC21)
    Format                         : AC-3
    Format/Info                    : Audio Coding 3
    Mode extension                 : CM (complete main)
    Format settings, Endianness    : Big
    Codec ID                       : 129
    Duration                       : 1h 3mn
    Bit rate mode                  : Constant
    Bit rate                       : 384 Kbps
    Channel(s)                     : 6 channels
    Channel positions              : Front: L C R, Side: L R, LFE
    Sampling rate                  : 48.0 KHz
    Compression mode               : Lossy
    Delay relative to video        : 33ms
    Stream size                    : 176 MiB (2%)
    
    Audio #2
    ID                             : 1053 (0x41D)
    Menu ID                        : 3105 (0xC21)
    Format                         : AC-3
    Format/Info                    : Audio Coding 3
    Mode extension                 : CM (complete main)
    Format settings, Endianness    : Big
    Codec ID                       : 129
    Duration                       : 1h 3mn
    Bit rate mode                  : Constant
    Bit rate                       : 192 Kbps
    Channel(s)                     : 2 channels
    Channel positions              : Front: L R
    Sampling rate                  : 48.0 KHz
    Compression mode               : Lossy
    Delay relative to video        : 33ms
    Stream size                    : 87.8 MiB (1%)
    
    Text #1
    ID                             : 1051 (0x41B)-CC1
    Menu ID                        : 3105 (0xC21)
    Format                         : EIA-608
    Muxing mode                    : A/53 / DTVCC Transport
    Muxing mode, more info         : Muxed in Video #1
    Duration                       : 1h 3mn
    Bit rate mode                  : Constant
    Stream size                    : 0.00 Byte (0%)
    
    Text #2
    ID                             : 1051 (0x41B)-1
    Menu ID                        : 3105 (0xC21)
    Format                         : EIA-708
    Muxing mode                    : A/53 / DTVCC Transport
    Muxing mode, more info         : Muxed in Video #1
    Duration                       : 1h 3mn
    Bit rate mode                  : Constant
    Stream size                    : 0.00 Byte (0%)
    

    Setlist:
    01 - Hello
    02 - Water Under the Bridge
    03 - One and Only
    04 - Hometown Glory
    05 - Chasing Pavements
    06 - All I Ask
    07 - Set Fire to the Rain
    08 - Daydreamer
    09 - Skyfall
    10 - Someone Like You
    11 - Million Years Ago
    12 - When We Were Young
    13 - Rolling in the Deep

    Info:
    Quality:
    HDTV | 1080i
    Format: TS | 16.5Mbps
    Length: 01:03:57 | 7.38Gb
    Video: MPEG Video | 1920x1080i | 16:9 | 29.970fps
    Audio 1: AC-3 | 384kbps | 48kHz | 6 channels
    Audio 2: AC-3 | 192kbps | 48kHz | 2 channels
    Language: English

    Download Link:

    Hidden Content:
    You must reply before you can see the hidden data contained here.
     
    Last edited: Jan 21, 2017
    divasfan, zepastel, Werdz and 3 others like this.
  2. Loading...


  3. Bruno

    Bruno Well-Known Member

    Joined:
    Nov 3, 2013
    Messages:
    1,234
    Likes Received:
    80
    many thx
     
  4. thenexte

    thenexte New Member

    Joined:
    Jun 19, 2016
    Messages:
    19
    Likes Received:
    1
    Thanks.
     
  5. Amy Winehouse

    Amy Winehouse Well-Known Member

    Joined:
    Dec 15, 2015
    Messages:
    717
    Likes Received:
    1,655
    Thanks:love:
     
    Last edited: Jan 17, 2017
    theclimb likes this.
  6. tknobi

    tknobi Well-Known Member

    Joined:
    Feb 22, 2014
    Messages:
    444
    Likes Received:
    798
    Thank you ;)
     
    Amy Winehouse likes this.
  7. Dreamer

    Dreamer Lana Del Rey ♥ Capper Uploader

    Joined:
    Dec 4, 2014
    Messages:
    2,480
    Likes Received:
    2,646
    Thank you!
     
  8. nitrocell

    nitrocell
    Administrator
    Staff Member AdMiN Capper

    Joined:
    Nov 18, 2013
    Messages:
    608
    Likes Received:
    4,174
    Mirror link added :wink:
     
    royevilone and Amy Winehouse like this.
  9. heikeeduardo

    heikeeduardo Member

    Joined:
    Nov 12, 2016
    Messages:
    80
    Likes Received:
    1
  10. mygod257-1977

    mygod257-1977 Member

    Joined:
    Dec 23, 2016
    Messages:
    107
    Likes Received:
    4
    thanks a lot
     
  11. luknov

    luknov New Member

    Joined:
    Jan 10, 2017
    Messages:
    9
    Likes Received:
    2
    great job...
     
  12. totp

    totp New Member

    Joined:
    Nov 22, 2016
    Messages:
    17
    Likes Received:
    1
    great job...
     
  13. rkn9

    rkn9 Well-Known Member

    Joined:
    Jan 9, 2016
    Messages:
    2,284
    Likes Received:
    34
    oleeeeeeeeee
     
  14. Sok77

    Sok77 New Member

    Joined:
    Jan 14, 2017
    Messages:
    1
    Likes Received:
    0
    awesome
     
  15. Werdz

    Werdz Member

    Joined:
    Dec 10, 2016
    Messages:
    31
    Likes Received:
    2
    thanks
     
  16. Gonzalo

    Gonzalo Active Member

    Joined:
    Sep 22, 2014
    Messages:
    1,130
    Likes Received:
    19
    Genial Muchas gracias
     
  17. tomantha

    tomantha Member

    Joined:
    Sep 1, 2016
    Messages:
    35
    Likes Received:
    33
    Thank you !
     
  18. zepastel

    zepastel New Member

    Joined:
    May 16, 2015
    Messages:
    23
    Likes Received:
    0
  19. Vinny

    Vinny Active Member

    Joined:
    Dec 26, 2013
    Messages:
    2,224
    Likes Received:
    8
    Thank U!
     
  20. vlst

    vlst Member

    Joined:
    Nov 9, 2015
    Messages:
    453
    Likes Received:
    9
    Cheers for that
     
  21. Winged

    Winged Active Member

    Joined:
    Sep 19, 2014
    Messages:
    274
    Likes Received:
    28
    Thanks!