Adam Lambert - Whataya Want From Me (VH1HD-1080i-DD2.0-Crusha)

Discussion in 'VH1 HD' started by Crusha, Jan 27, 2016.

  1. Crusha

    Crusha Well-Known Member Capper

    Joined:
    Oct 15, 2014
    Messages:
    2,350
    Likes Received:
    2,212
    [​IMG]

    Mediainfo
    General
    ID : 1 (0x1)
    Complete name : Adam Lambert - Whataya Want from Me (VH1.HD.1080i.DD2.0).-Crusha.ts
    Format : MPEG-TS
    File size : 90.5 MiB
    Duration : 3mn 45s
    Overall bit rate mode : Variable
    Overall bit rate : 3 365 Kbps

    Video
    ID : 2943 (0xB7F)
    Menu ID : 1515 (0x5EB)
    Format : AVC
    Format/Info : Advanced Video Codec
    Format profile : [email protected]
    Format settings, CABAC : Yes
    Format settings, ReFrames : 4 frames
    Codec ID : 27
    Duration : 3mn 45s
    Bit rate : 2 810 Kbps
    Width : 1 920 pixels
    Height : 1 080 pixels
    Display aspect ratio : 16:9
    Frame rate : 29.970 fps
    Standard : Component
    Color space : YUV
    Chroma subsampling : 4:2:0
    Bit depth : 8 bits
    Scan type : MBAFF
    Scan order : Top Field First
    Bits/(Pixel*Frame) : 0.045
    Stream size : 75.5 MiB (84%)
    Color range : Limited
    Color primaries : BT.709
    Transfer characteristics : BT.709
    Matrix coefficients : BT.709

    Audio
    ID : 3909 (0xF45)
    Menu ID : 1515 (0x5EB)
    Format : AC-3
    Format/Info : Audio Coding 3
    Mode extension : CM (complete main)
    Format settings, Endianness : Big
    Codec ID : 6
    Duration : 3mn 45s
    Bit rate mode : Constant
    Bit rate : 384 Kbps
    Channel(s) : 2 channels
    Channel positions : Front: L R
    Sampling rate : 48.0 KHz
    Compression mode : Lossy
    Stream size : 10.3 MiB (11%)
    Language : English

    Hidden Content:
    You must either reply or click 'Like' to see the hidden information contained here.
    Password:
    crusha
     
  2. Loading...


  3. astroninja

    astroninja Member

    Joined:
    Jul 5, 2015
    Messages:
    137
    Likes Received:
    5
    Thanks for sharing!
     
  4. Jrec

    Jrec Active Member

    Joined:
    May 11, 2016
    Messages:
    627
    Likes Received:
    25
    Thanks
     
  5. Johan Pinzon

    Johan Pinzon Member

    Joined:
    Aug 15, 2016
    Messages:
    296
    Likes Received:
    11
  6. Dream66

    Dream66 Active Member

    Joined:
    Jan 24, 2016
    Messages:
    275
    Likes Received:
    65
    Wow this audio quality is really awesome:love:Could You make soon a spossible If I Had You vh1 version in the same audio quality like a Whataya Want From Me?
     
  7. marcelox14

    marcelox14 Member

    Joined:
    Jan 8, 2017
    Messages:
    98
    Likes Received:
    13
    THANKS
     
  8. fan2valbim

    fan2valbim New Member

    Joined:
    Jan 10, 2017
    Messages:
    11
    Likes Received:
    1
  9. goodnfriend

    goodnfriend Member

    Joined:
    Mar 1, 2017
    Messages:
    126
    Likes Received:
    0
    ujipujip