WEB-RiP Adam Lambert - Feel Something (Live Session) - [TIDAL-1080p-Liljaa]

Discussion in 'TIDAL' started by Liljaa, May 25, 2019.

  1. Liljaa

    Liljaa Member

    Joined:
    May 22, 2019
    Messages:
    14
    Likes Received:
    87
    [​IMG]

    Ripped by me.

    MediaInfo
    Code:
    General
    Complete name                            : Adam Lambert - Feel Something (Live Session) - [TIDAL-1080p-Liljaa].mp4
    Format                                   : MPEG-4
    Format profile                           : Base Media
    Codec ID                                 : isom (isom/iso2/avc1/mp41)
    File size                                : 116 MiB
    Duration                                 : 2 min 51 s
    Overall bit rate mode                    : Variable
    Overall bit rate                         : 5 657 kb/s
    Writing application                      : Lavf58.20.100
    
    Video
    ID                                       : 1
    Format                                   : AVC
    Format/Info                              : Advanced Video Codec
    Format profile                           : High@L4
    Format settings                          : CABAC / 4 Ref Frames
    Format settings, CABAC                   : Yes
    Format settings, Reference frames        : 4 frames
    Codec ID                                 : avc1
    Codec ID/Info                            : Advanced Video Coding
    Duration                                 : 2 min 51 s
    Bit rate                                 : 5 332 kb/s
    Width                                    : 1 920 pixels
    Height                                   : 1 080 pixels
    Display aspect ratio                     : 16:9
    Frame rate mode                          : Variable
    Frame rate                               : 23.976 (24000/1001) FPS
    Minimum frame rate                       : 23.974 FPS
    Maximum frame rate                       : 23.981 FPS
    Color space                              : YUV
    Chroma subsampling                       : 4:2:0
    Bit depth                                : 8 bits
    Scan type                                : Progressive
    Bits/(Pixel*Frame)                       : 0.107
    Stream size                              : 109 MiB (94%)
    Writing library                          : x264 core 157
    Encoding settings                        : cabac=1 / ref=4 / deblock=1:0:0 / analyse=0x3:0x113 / me=hex / subme=8 / psy=1 / psy_rd=1.00:0.00 / mixed_ref=1 / me_range=16 / chroma_me=1 / trellis=2 / 8x8dct=1 / cqm=0 / deadzone=21,11 / fast_pskip=1 / chroma_qp_offset=-2 / threads=24 / lookahead_threads=4 / sliced_threads=0 / nr=0 / decimate=1 / interlaced=0 / bluray_compat=0 / constrained_intra=0 / bframes=3 / b_pyramid=2 / b_adapt=1 / b_bias=0 / direct=3 / weightb=1 / open_gop=0 / weightp=2 / keyint=72 / keyint_min=37 / scenecut=0 / intra_refresh=0 / rc_lookahead=50 / rc=crf / mbtree=1 / crf=20.0 / qcomp=0.60 / qpmin=0 / qpmax=69 / qpstep=4 / vbv_maxrate=8800 / vbv_bufsize=12000 / crf_max=0.0 / nal_hrd=none / filler=0 / ip_ratio=1.40 / aq=1:1.00
    Codec configuration box                  : avcC
    
    Audio
    ID                                       : 2
    Format                                   : AAC LC
    Format/Info                              : Advanced Audio Codec Low Complexity
    Codec ID                                 : mp4a-40-2
    Duration                                 : 2 min 51 s
    Bit rate mode                            : Variable
    Bit rate                                 : 323 kb/s
    Channel(s)                               : 2 channels
    Channel layout                           : L R
    Sampling rate                            : 48.0 kHz
    Frame rate                               : 46.875 FPS (1024 SPF)
    Compression mode                         : Lossy
    Stream size                              : 6.54 MiB (6%)
    Default                                  : Yes
    Alternate group                          : 1
    

    Hidden Content:
    You must either reply or click 'Like' to see the hidden information contained here.
     
    Maura likes this.
  2. Loading...


  3. BetaKsi

    BetaKsi Well-Known Member

    Joined:
    Oct 18, 2015
    Messages:
    2,814
    Likes Received:
    685
    Thank you))
     
  4. guanche1985

    guanche1985 Active Member

    Joined:
    Nov 23, 2016
    Messages:
    837
    Likes Received:
    64