Adam Lambert - Another Lonely Night (One.by HD 1080i) - dan93star

Discussion in 'One.by HD' started by Dreamer, Nov 6, 2015.

  1. Dreamer

    Dreamer ♫ It's Britney Bitch ♫ Capper Uploader

    Joined:
    Dec 4, 2014
    Messages:
    2,230
    Likes Received:
    1,961
    Adam Lambert - Another Lonely Night (One.by HD)

    [​IMG]

    General
    ID : 0 (0x0)
    Complete name : C:\Users\DK\Desktop\Adam Lambert - Another Lonely Night (One.by HD).ts
    Format : MPEG-TS
    File size : 121 MiB
    Duration : 3mn 35s
    Overall bit rate mode : Variable
    Overall bit rate : 4 720 Kbps
    Maximum Overall bit rate : 3 706 Kbps

    Video
    ID : 4113 (0x1011)
    Menu ID : 1 (0x1)
    Format : AVC
    Format/Info : Advanced Video Codec
    Format profile : [email protected]
    Format settings, CABAC : Yes
    Format settings, ReFrames : 2 frames
    Codec ID : 27
    Duration : 3mn 35s
    Bit rate : 4 332 Kbps
    Width : 1 920 pixels
    Height : 1 080 pixels
    Display aspect ratio : 16:9
    Frame rate : 25.000 fps
    Color space : YUV
    Chroma subsampling : 4:2:0
    Bit depth : 8 bits
    Scan type : Progressive
    Bits/(Pixel*Frame) : 0.084
    Stream size : 111 MiB (92%)

    Audio
    ID : 4352 (0x1100)
    Menu ID : 1 (0x1)
    Format : AC-3
    Format/Info : Audio Coding 3
    Mode extension : CM (complete main)
    Format settings, Endianness : Big
    Codec ID : 129
    Duration : 3mn 35s
    Bit rate mode : Constant
    Bit rate : 192 Kbps
    Channel(s) : 2 channels
    Channel positions : Front: L R
    Sampling rate : 48.0 KHz
    Compression mode : Lossy
    Stream size : 4.93 MiB (4%)

    Capped by me

    Hidden Content:
    You must reply before you can see the hidden data contained here.
     
    DETOX, rhea and CELOBRAZiL like this.
  2. rhea

    rhea Well-Known Member

    Joined:
    Jan 6, 2014
    Messages:
    5,280
    Likes Received:
    253
    thanks a lot
     
  3. terraj

    terraj New Member

    Joined:
    Jan 2, 2015
    Messages:
    14
    Likes Received:
    3
    Thank you so much!
     
  4. rashka

    rashka Member

    Joined:
    Apr 8, 2014
    Messages:
    200
    Likes Received:
    7
    Thank you
     
  5. Crusha

    Crusha Well-Known Member Capper

    Joined:
    Oct 15, 2014
    Messages:
    2,350
    Likes Received:
    2,137
    thank you