Aaliyah feat. Timbaland - Try Again (MTVIdol-1080i-DD2.0)-Olgold

Discussion in 'MTV IDOL' started by Olgold, Aug 25, 2015.

  1. Olgold

    Olgold Well-Known Member Capper

    Joined:
    Aug 19, 2015
    Messages:
    436
    Likes Received:
    1,721
    [​IMG]
    General
    Format : MPEG-TS
    File size : 271 MiB
    Duration : 3mn 40s
    Overall bit rate mode : Variable
    Overall bit rate : 10.3 Mbps

    Video
    Format : AVC
    Format/Info : Advanced Video Codec
    Format profile : [email protected]
    Format settings, CABAC : Yes
    Format settings, ReFrames : 4 frames
    Duration : 3mn 40s
    Bit rate : 9 556 Kbps
    Width : 1 920 pixels
    Height : 1 080 pixels
    Display aspect ratio : 16:9
    Frame rate : 25.000 fps
    Standard : Component
    Color space : YUV
    Chroma subsampling : 4:2:0
    Bit depth : 8 bits
    Scan type : MBAFF
    Scan order : Top Field First
    Bits/(Pixel*Frame) : 0.184
    Stream size : 251 MiB (93%)
    Color range : Limited

    Audio
    Format : AC-3
    Format/Info : Audio Coding 3
    Mode extension : CM (complete main)
    Format settings, Endianness : Big
    Duration : 3mn 40s
    Bit rate mode : Constant
    Bit rate : 256 Kbps
    Channel(s) : 2 channels
    Channel positions : Front: L R
    Sampling rate : 48.0 KHz
    Compression mode : Lossy
    Delay relative to video : 152ms
    Stream size : 6.72 MiB (2%)
    Language : French
    Language, more info : Clean effects

    Hidden Content:
    You must reply before you can see the hidden data contained here.
     
    curg, Niclove21, rhea and 2 others like this.
  2. Loading...


  3. rhea

    rhea Well-Known Member

    Joined:
    Jan 6, 2014
    Messages:
    7,115
    Likes Received:
    788
    thank you so much
     
  4. 江雨燃双鱼

    江雨燃双鱼 Active Member

    Joined:
    Apr 5, 2014
    Messages:
    614
    Likes Received:
    43
    thank you so much
     
  5. Crusha

    Crusha Well-Known Member Capper V . I . P.

    Joined:
    Oct 15, 2014
    Messages:
    2,358
    Likes Received:
    2,672
    thank you
     
  6. TheGifted

    TheGifted Member

    Joined:
    Jul 17, 2015
    Messages:
    169
    Likes Received:
    3
    thanks bro
     
  7. J_Pablo

    J_Pablo Active Member

    Joined:
    Nov 27, 2013
    Messages:
    529
    Likes Received:
    111
    great song! thank you so much for Aaliyah
     
  8. Dima24684

    Dima24684 Member

    Joined:
    Dec 20, 2015
    Messages:
    225
    Likes Received:
    9
    thanks
     
  9. Snorom6

    Snorom6 Well-Known Member V . I . P. Uploader

    Joined:
    Dec 17, 2015
    Messages:
    4,248
    Likes Received:
    5,302
  10. tsm897

    tsm897 Member

    Joined:
    Apr 16, 2014
    Messages:
    137
    Likes Received:
    5
    thank you
     
  11. TrendMusic

    TrendMusic Well-Known Member

    Joined:
    Oct 7, 2013
    Messages:
    1,457
    Likes Received:
    112
  12. Pavulon

    Pavulon Well-Known Member

    Joined:
    Mar 22, 2016
    Messages:
    3,808
    Likes Received:
    492
    thanks
     
  13. revilo18

    revilo18 Well-Known Member

    Joined:
    May 26, 2016
    Messages:
    1,891
    Likes Received:
    85
    thankkk
     
  14. tapions

    tapions Active Member

    Joined:
    Aug 30, 2016
    Messages:
    914
    Likes Received:
    79
    gracias
     
  15. Eulonzo

    Eulonzo Member

    Joined:
    Sep 3, 2016
    Messages:
    52
    Likes Received:
    2
    Thank you!
     
  16. mcslimshady

    mcslimshady Well-Known Member

    Joined:
    Jun 20, 2016
    Messages:
    1,478
    Likes Received:
    36
  17. badine82

    badine82 Member

    Joined:
    Oct 24, 2015
    Messages:
    270
    Likes Received:
    7
  18. multimediafm

    multimediafm Well-Known Member Donor

    Joined:
    Mar 27, 2014
    Messages:
    11,165
    Likes Received:
    672
    Thanks...
     
  19. 3veronicas

    3veronicas Well-Known Member

    Joined:
    Aug 26, 2016
    Messages:
    1,399
    Likes Received:
    63
  20. Diego Duda

    Diego Duda Member

    Joined:
    Mar 6, 2016
    Messages:
    176
    Likes Received:
    9
    thank you
     
  21. zorgs777

    zorgs777 Member

    Joined:
    Feb 18, 2017
    Messages:
    67
    Likes Received:
    0
    thank you