WEB-RiP 5staFamily - Зачем 1080p

Discussion in 'RE! MUSIC' started by vitalya3, Apr 7, 2018.

  1. vitalya3

    vitalya3 Well-Known Member

    Joined:
    Dec 4, 2017
    Messages:
    1,397
    Likes Received:
    1,709
    [​IMG]

    Code:
    General
    Complete name                  : C:\Users\Samlap\Desktop\5staFamily - Зачем.mp4
    Format                         : MPEG-4
    Format profile                 : Base Media
    Codec ID                       : isom
    File size                      : 163 MiB
    Duration                       : 3mn 41s
    Overall bit rate mode          : Variable
    Overall bit rate               : 6 153 Kbps
    Writing application            : Lavf56.25.101
    
    Video
    ID                             : 1
    Format                         : AVC
    Format/Info                    : Advanced Video Codec
    Format profile                 : High@L4.0
    Format settings, CABAC         : Yes
    Format settings, ReFrames      : 5 frames
    Codec ID                       : avc1
    Codec ID/Info                  : Advanced Video Coding
    Duration                       : 3mn 41s
    Bit rate                       : 6 000 Kbps
    Width                          : 1 920 pixels
    Height                         : 1 080 pixels
    Display aspect ratio           : 16:9
    Frame rate mode                : Constant
    Frame rate                     : 25.000 fps
    Color space                    : YUV
    Chroma subsampling             : 4:2:0
    Bit depth                      : 8 bits
    Scan type                      : Progressive
    Bits/(Pixel*Frame)             : 0.116
    Stream size                    : 159 MiB (98%)
    Writing library                : x264 core 146 r2538 121396c
    Encoding settings              : cabac=1 / ref=5 / deblock=1:0:0 / analyse=0x3:0x113 / me=umh / subme=8 / psy=1 / psy_rd=1.00:0.00 / mixed_ref=1 / me_range=8 / chroma_me=1 / trellis=1 / 8x8dct=1 / cqm=0 / deadzone=21,11 / fast_pskip=1 / chroma_qp_offset=-2 / threads=4 / lookahead_threads=1 / sliced_threads=0 / nr=0 / decimate=1 / interlaced=0 / bluray_compat=0 / constrained_intra=0 / bframes=3 / b_pyramid=2 / b_adapt=2 / b_bias=0 / direct=3 / weightb=1 / open_gop=0 / weightp=2 / keyint=250 / keyint_min=25 / scenecut=40 / intra_refresh=0 / rc_lookahead=50 / rc=2pass / mbtree=1 / bitrate=6000 / ratetol=1.0 / qcomp=0.60 / qpmin=0 / qpmax=69 / qpstep=4 / cplxblur=20.0 / qblur=0.5 / vbv_maxrate=9000 / vbv_bufsize=24000 / nal_hrd=none / filler=0 / ip_ratio=1.40 / aq=1:1.00
    
    Audio
    ID                             : 2
    Format                         : AAC
    Format/Info                    : Advanced Audio Codec
    Format profile                 : LC
    Codec ID                       : 40
    Duration                       : 3mn 41s
    Bit rate mode                  : Variable
    Bit rate                       : 144 Kbps
    Maximum bit rate               : 9 000 Kbps
    Channel(s)                     : 2 channels
    Channel positions              : Front: L R
    Sampling rate                  : 44.1 KHz
    Compression mode               : Lossy
    Stream size                    : 3.85 MiB (2%)
    
    
    Hidden Content:
    You must either reply or click 'Like' to see the hidden information contained here.
     
  2. kana3245

    kana3245 Well-Known Member

    Joined:
    Aug 15, 2016
    Messages:
    1,226
    Likes Received:
    56
    thank you